&title=トーキーダンス
&artist=ヒトリエ
&first=0
&des=夢の中
&des_6=
&lv_6=13+
&inote_6=(179){4},{1},,,,,{4},,,2/4-8[8:1],
{8}3,3,,{16}7,5,6,4,{8}5,
{4}2/4-8[8:1],{8}3,3,,7,{4}1/6,
7/5-1[8:1],{8}6,6,,{16}2,4,3,5,{8}4,
{4}7/5-1[8:1],{8}6,6,,2,{4}8/3,
2/4-8[8:1],{8}2,5,,{16}7,4,6,3,{8}5,
{4}2/4-8[8:1],{8}2,5,,7,{4}1/6,
7/5-1[8:1],{8}7,4,,{16}2,5,3,6,{8}4,
{4}7/5-1[8:1],{8}7,4,{16}6,2,6,2,7,3,7,3,
{4}8<4[16:3],{8}2,2-5[8:1],,1,,6,
{4}6<1[8:1],{8}4,4>1[8:1],,5,6,7,
{4}8<4[16:3],{8}1,2-5[8:1]*-8[8:1],,2,,7-4[8:1],
{2}3-8[8:1],{8}6h[48:1],1h[48:1],5h[48:1],2h[48:1],
{4}4b/3bV16[16:3],{8}5,5-8[8:1],,4,,2,
{4}2-5[8:1],{8}7,7-4[8:1],,3,2,1,
{4}8V25[16:3],{8}6,6-1[8:1],,5,,3,
1,4,8,5V31[16:3]*V71[16:3],{2},{4}3b/7b<4[8:1],
{8}7,2-6[8:1],,2/1,,7,
4,5,2,2V46[16:3],,8,8,8,
{4}8V61[8:3],{8}2,2-5[8:1],,2,,8,
8-4[8:1],4>6[4:1],2,2,{4},1b,
6b/5b>2[8:1],{8}7,8-4[8:1],,1/8,,2,
4,5,7,7V53[16:3],,1,1,1,
{4}1-4[8:1],{8}7,8<5[8:1]*>3[8:1],,8,,4,
2v8[8:1],6v4[8:1],2,6,,1b,{4}7b/3b,
{16}6V47[16:3],{8},{16}4,{8}6,3,,{16}2,8,1,7,{8}2,
{16}3V52[16:3],{8},{16}5,{8}3,7,,8,{4}1/7,
{16}6V47[16:3],{8},{16}4,{8}6,3,,{16}2,8,1,7,{8}2,
{16}3V52[16:3],{8},{16}5,{8}3,7,,8,{4}1/7,
{16}6bV48[16:3],{8},{16}4,{8}6,2,,{16}1,7,2,8,{8}1,
{16}2V48[16:3],{8},{16}4,{8}2,6,,8,{4}1/7,
{16}6bV48[16:3],{8},{16}4,{8}6,2,,{16}1,7,2,8,{8}1,
{16}2V48[16:3],{8},{16}4,{8}2,6b,,{16}1,6,2,7,3,8,
{8}4h[8:1],7h[8:1],4h[8:1],6h[8:1],4h[8:1],5h[4:1],,4h[8:1],
3h[8:1],2h[8:1],1h[8:1],8h[8:3],{4},7,
{8}6h[8:1],3h[8:1],6h[8:1],4h[8:1],6h[8:1],5h[4:1],,6h[8:1],
7h[8:1],8h[8:1],1h[8:1],2h[8:3],{4},3,
{8}4h[8:1],7h[8:1],3h[8:1],6h[8:1],4h[8:1],5h[4:1],,4h[8:1],
3h[8:1],1h[8:1],8h[8:1],6h[8:3],{4},5,
{8}3h[8:1],6h[8:1],2h[8:1],5h[8:1],3h[8:1],4h[4:1],,3h[8:1],
2h[8:1],1h[8:1],8h[8:1],7h[8:3],,6,{4}6,
{8}2/5,{16}3,4,{8}2,{16}6,5,7,4,6,5,{8},1,
2/8,{16}3,4,{8}3,{16}6,5,{8}6h[8:1],{16}5,6,{8},5/6,
7/4,{16}6,5,{8}7,{16}3,4,2,5,3s7[4:1],4,{8}2,1,
{4}8,{8}8-4[8:1],8,,1,{4}1,
{8}2/5,{16}3,3,{8}4,{16}6,6,{8}5,7,{4}8/1,
{8}2/5,{16}3,3,{8}4,{16}6,6,{8}5,7,{4}2/8,
{8}1/7,6,4,2/8,3,5,1/7,6,
5/4,3,2V41[4:1]/8V61[4:1],7,{2},{8}1b,
2/8-4[8:1],6,8>3[8:1],,8/7,,6,
8,7/1-5[8:1],3,1<6[8:1],,1/2,,3,
{4}5/2-5[8:1],{8}8,8>6[16:3],,3/8,,1,
{4}1q5[8:1],{8}6,6v1[8:1],,6/4,,3-5[8:1],
2,7-4[8:1],8,1-5[8:1],,1b/8b,,6-4[8:1],
7,2-5[8:1],1,8-4[8:1],,8b/1b,,2,
3/4,5,4/6,3,2/5,6,7/4,3,
{4}5/1-5[8:1],{8}1,6h[4:1],,{16}4,6,3,6,2,6,
{8}1b-4[8:1],8,7-4[8:1],8,1-4[8:1],8,7-4[8:1],8,
2-5[8:1],1,7-4[8:1],8,2-5[8:1],1,6,7,
8-4[8:1],1,2-5[8:1],1,8-4[8:1],1,2-5[8:1],1,
7-3[8:1],8,1-4[8:1],8,7-3[8:1],8,{4}1,
{8}2,{16}3,4,{8}3,{24}2/5-1[8:1]*-7[8:1],3,4,{8},5,,8/2,
2,{16}3,4,{8}3,{24}2/5,3,4,5,6,7,8,1,2,3,4,5,6,7,8,
{4}1/5,{8}3/4,1h[4:1],,8,1,7/2,
{16}4,6,3,5,{8}2,8h[4:1],,1,{4}2/8,
{16}2,5,3,6,{8}4,8h[4:1],,1,8,2/7,
{16}5,3,6,4,{8}7,1h[4:1],,8,{4}7/1,
{16}2,5,3,4,{8}1,8h[4:1],,1,8,2/7,
{16}5,3,7,4,{8}6,1h[4:1],,8,{4}1/7,
{16}7,4,6,5,{8}8,1h[4:1],,8,1,7/2,
{16}4,6,2,5,{8}3,8h[4:1],,1,{4}6/2,
3bq5[8:3],8,8<5[8:1]*>3[8:1],8,
6p4[8:3],1,1>4[8:1]*<6[8:1],1,
3qq5[8:3],8,8<5[8:1]*p4[8:1],8,
6pp4[8:3],1,1>4[8:1]*q5[8:1],1b,
3bqq6[8:3],8,7<4[8:1]*p3[8:1],7,
2qq5[8:3],7,6>3[8:1]*p2[8:1],6,
1qq4[8:3],6,5q1[8:1]*>2[8:1],5,
8-4[8:1],3,{16}2,5,3,5,2,6,4,6,
{8}2,{16}2,3,{8}2,{16}2,4,{8}2,{16}2,5,{8}2,{16}2,6,
{8}2,{16}2,7,{8}2,2,1/8,2/7,3/6,4/5,
5,{16}5,4,{8}5,{16}5,2,{8}5,{16}5,3,{8}5,{16}5,1,
{8}5,{16}5,2,{8}5,5,5/4,3/6,{4}2/7,
{16}1,8,1,8,2,7,2,7,3,4,3,4,2,5,{8}2,
{16}4,6,4,6,3,7,3,7,1,8,1,8,{8}1,2/6,
3,{16}3,4,3,4,{8}3,{16}6,5,6,5,{8}6,7/4,
{16}3,3,4,2,6,6,5,7,{8}1,2/8,{4}3/7,
{8}8/4,{16}6,5,{8}7,{16}3,4,2,5,3,3,{8},8,
7/1,{16}6,5,{8}6,{16}2,5,{8}3h[8:1],{16}4,4,{8},4/3,
2/5,{16}3,4,{8}1,{16}6,5,7,4,6z2[4:1],5,{8}7,8,
{4}1,{8}1-5[8:1],1,,8,{4}8,
{8}7/4,{16}6,6,{8}5,{16}3,3,{8}4,2,{4}1/8,
{8}7/4,{16}6,6,{8}4,{16}3,3,{8}5,2,{4}7/1,
{8}8b/2b,4,5,7b/1b,5,4,8b/2b,3,
4b/6b,7,8bV62[8:3]/1bV37[8:3],2,{2},{1}1b<1[2:13],
,,,8<4[2:5],
,,{2}1h[8:3]/4h[8:3],
{16}2,5,3,6,4,7,5,8,
{8}2b,{32}1-5[32:3],8,7,6,{8},1>4[32:3],,{32}1/8,7,6,5,{8},2,
7,{32}8-4[32:3],1,2,3,{8},8<5[32:3],,{32}8/1,2,3,4,{8},7,
{32}2-6[8:1],3,4,5,{8},2/8,1<5[32:5]*>5[32:5],,1,,{32}8,7,{16}6h[8:1],
{32}2,3,{16}4h[16:3],{8},{32}7,6,{16}5h[8:1],{32}1<6[8:1],2,{16}3h[16:3],{8},1b,,3/5,
2-5[8:1],{16}3,4,{8}2,7b-3[8:1],,8b/7b,,1,
2-6[8:1],{16}4,5,{8}2,7b-3[8:1],,8b/7b,,1-4[8:1],
2,5-8[8:1],6,2-5[8:1],3,1,1,1h[8:1],
{16}5,1,4,1,3,1,2,8,1,7,2,6,3,5,4,6,
{8}2b-5[8:1],3,8-5[8:1],7,2-5[8:1],3,8-5[8:1],7,
2-5[8:1],1,7-4[8:1],8,2-5[8:1],1,7,8,
1-5[8:1],1,3-6[8:1],2,8-4[8:1],8,3-6[8:1],2,
7-3[8:1],7,2-5[8:1],1,5-1[8:1],6,{4}7,
{8}2,{16}3,4,{8}3,{24}2/5w1[8:1],3,4,{8},5,,7/3,
3,{16}4,5,{8}4,{24}2b/6b,3,4,5,6,7,8,1,2,3,4,5,6,7,8,
{4}1/5-1[8:1],{8}2,4,,{16}8,3,7,2,6,1,
{4}5-1[8:1],{8}2,4,,8,{4}1/6,
8/4-8[8:1],{8}7,5,,{16}1,6,2,7,3,8,
{4}4-8[8:1],{8}7,5,,1,{4}8/3,
3/4-8[8:1],{8}2,5,,{16}7,3,6,2,5,1,
{4}4-8[8:1],{8}2,5,,7,{4}8/5,
6/5-1[8:1],{8}7,4,,{16}2,6,3,7,4,8,
{4}5-1[8:1],{8}7,4-8[8:1],,2b,{4}5b,
E
