&title=幽世桔梗
&artist=Capchii feat.まるもこ
&first=0.27
&lv_5=14
&des_5=くさなぎあんす
&inote_5=
(182){4},,,,{48}A1/B7h[1:1],
B1,Cf,B5,{12}A5,,,,,,,,,,,{4}1x,
2,3,4,
{2}5/6p6[2:1],{4}4,3,
2qq2[2:1],5,6,7,
{1}8-4pp5[2:1]*-4qq3[2:1],
{4}8,7,6,5,
{2}4/3v8-2[2:1],{4}5,6,
7>2p6[2:1],5,4,3,
{2}6h[8:3]/2h[8:3],{8}7,{16}1,8,{8}1,2/7,
6bx/3bx,{16}7,1,{8}7,2-5[8:1],8-4[8:1],2,8,3,
2/7,3,4/6,7,{16}2-5[8:1],8,2,8,{4}2x,
{8}6/3,{16}4,5,{8}3,6,3,2,8/1,7,
6/4,4,5/3,5,6/4h[8:3],8xh,8xh,8xh,
{16}8,7,{8}6,3,7,7-4[8:1],1-5[8:1],7,1,
6,7/4,3,5/2,3,{16}7,1,{4}7-4[8:1],
{8}7/3,3,{16}5,4,{8}6,3/7,7/3,6/2,6/2,
{16}1/5,,,3/7,,,{8}7-4[8:1]/2-5[8:1],{2}7/2,
{8}3bx/6bx,{16}2,8,{8}2,8-5>4[8:1],4-7[8:1],8,2-5[8:1],2,
2/6,6,7/1,2,{16}6-1[8:1],4,6,4,{4}6x,
{8}3/6,{16}5,4,{8}6,3,7-3[8:1],3-7[8:1],7,2,
1,8/2,{16}3,5,{8}3,5h[8:3],1xh,1xh,1xh,
{16}1,2,{8}3,6,1-4<5[8:1],5-2[8:1],1,7-4[8:1],7,
7/3,3,2/8,7,{16}3-8[8:1],5,3,5,{4}3x,
{8}6/3,{16}4,5,{8}3,6,2-6[8:1],6-2[8:1],2,7,
{16}8,,,6/2,{8},7-2b[8:1]/3-6b[8:1],{2}7/3,
{4}4/6,3/6,{16}4/6,,,3,{8}6,3,
{4}6/4,4/6,{16}4/7,,,6,{8}4,6,
{4}2/7,7/3,{16}7/2,,,1,{8}7,1,
{4}7/2,2/5,{16}2/6,,,5,{8}2,5,
{4}2/6,3/6,{16}4/6,,,3,{8}6,3,
{4}5/4,4/6,{16}4/7,,,6,{8}4,6,
{4}4/7,7/3,{16}7/2,,,1,{8}7,1,
{4}2/7pp4[4:1],2,{16}3,,,5,{8}3,5,
{4}3-8[8:1],6,{16}6h/1-4[8:1],,,6h,{8}1,6h,
{4}6v1[8:1],4,{16}4h/8<5[8:1],,,4h,{8}8,4h,
{4}4p8[8:1],6,{16}6h/7q3[8:1],,,6h,{8}7,6h,
{4}6pp1[4:1],3,{16}3,,,8,{8}3,8,
{4}3/7-4[8:1],3,{16}3h/5-8[8:1],,,3h,{8}5,3h,
{4}3p7[8:1],6,{16}6h/8-3[8:1],,,6h,{8}8,6h,
{4}5q1[8:1],4,{16}4h/2p6[8:1],,,4h,{8}2,4h,
{1}4z8>3b[2:1]/5s1<6b[2:1],
{4}7b/3bh[1:2],{8},,,,E7,B6,
,,,,,,,,{4}B8,
B7/B2,B6/B3,{8}B4,B5h[8:9],
,,,,,,,,{1}1h[1:1],
{2}8h[2:1],2h[2:1],
{8}B6h[1:1],{4},,,{48}A8,D1,A1f,D2,A2,D3,
{1}A3,
{2}7b/3bqq5b[2:1],{4}6,7,
1/8p4[8:1],8/2,{16}3,5,3,5,2,6,{8}2,
{4}6V82[4:1],{8}2<6[4:1],3,{4}4,4,
{2}4h[4:1]/5<8[8:1],{4}7/2,6/3,
{2}4b/5b-7-1v6b[2:1],{4}4,3,
2-5[8:1],{8}5/2,6,{16}7,1,7,1,6,2,{8}6,
{4}3<7[4:1],7>3[4:1],3<6[4:1],6pp7[4:1]*qq5[4:1],
{16},,,,,,4,5,{4}6/3-7[8:1],3/5-8b[8:1]*-2b[8:1],
5b,7/3-8>2-6[2:1],4,5,
7-1-6[4:1],{8}1,2,{16}3,5,3,5,2,6,{8}2,
{4}7-3[4:1],{8}3-5-1[4:1],2,{4}1-7-5[4:1],2,
{2}2-6[8:1]*s6[8:1],{4}7/2,6/3,
8qq5[2:1],{8}4,3,{4}2,2-5[8:1],
2/6<1[8:1],6/3,{16}4,5,4,5,3,6,{8}3,
{4}2-6[4:1],6-1[4:1],1-5[4:1],5pp6[4:1]*qq4[4:1],
{16},,,,,,8,1,{4}2-6[8:1]/6-4[8:1],2/6-1-3b[4:1],
5b,5V73[4:1],3>6[4:1],4,
4-8[8:1],6/4,{16}1,7,2,6,3,5,{8}4,
{4}6-8-2-4[4:1],{8}3,4,{4}5-3>8[4:1],6,
{2}5q1[8:1]*p1[8:1],{4}2-7[8:1]/7-4[8:1],2/7-1-3b[4:1],
3b>7[4:1],5,6v8-2[4:1],4,
3-8[8:1],{8}3/5,6,{16}1,8,2,7,3,6,{8}4,
{4}6-8-2[16:3],{8}5,4,{4}3-8[8:1],5/3,
{8}1h[4:1]/5h[4:1],{16},,,,7,6,{4}5-7[8:1]/3-5[8:1],3/5-2<8b[4:1],
8b-6q2[4:1],5,4-7[8:1],4/2-6[8:1],
2/1-5[8:1],1,{16}3,4,2,5,1,6,{8}8,
{4}7-3-5[4:1],{8}2,1,{4}8<5[8:1]*>3[8:1],8w4[8:1],
8,{8}6/2,5b/4b,{4}8p4[8:1]/1q5[8:1],8/1,
7-4[8:1],{8}7/2-6[8:1],2,{4}2<5[4:1],5-8-3[4:1],
8,7,{16}6,5,7,4,8,3,{8}1,
{4}2p6[4:1],6<2[4:1],5-8[8:1],5,
{1}B7h[2:1]/B2h[2:1]/Cfh[16:7],
{8}7b/4b,6,2/5,3,7/2,{16}1,8,{8}1,7/2,
{16}3,6,{8}2,{16}8,1,{8}7,7/1,1/7,6/2,2/6,
5/3,2,8/1,7,6/4,{16}3,5,{8}3,6/2,
{16}1,7,1,7,2,6,2,6,{8}5/3,3/5,6/2,2/6,
{16}1,7,2,8,1,7,{8}2,8-4[8:1],1-5[8:1],8,1,
{16}6,4,6,4,5,3,{8}5,3-8[8:1],7-4[8:1],3,7,
{16}3,2,1,8,4,5,6,7,8/1,2,3,4,5/1,6,7,8,
{4}1b/5b-8[8:1],{8}5/3-7[8:1],2,{4}3/5,{16}8,7,1,6,
{8}2-5[8:1],{16}7,7,{8}2,6,{16}4-8[8:1],6,{8}3,5,6,
7-5[8:1],4,7-1[8:1],3,7-3[8:1],4,7>2V86[4:1],2,
{4}7,{16}4,4,{8}4,5/3,2,7/1,6,
{4}5/B2h[4:1]/E3h[4:1]/B3h[4:1],{32}8,7,6,5,,,,,{8}8/1,7/2,{16}3-8b[8:1],6,{8}2,
{4}5/3b,{8}6-1[8:1],6,3-8[8:1],3,5-1[8:1],5,
4p7[8:1],4,5q2[8:1],5,4p8[8:1],4,5<8[8:1],5,
{2}1b-5b[2:1],3bxh,
{16}7/3,,,1/5,,,{8}6/3,6/3,{16}1,8,{8}1,5/4,
{16}6b,2,7,1,{8}7-4[8:1],{16}2,2,{8}7,3,{16}5-1[8:1],3,{8}6,
4,3,2-4[8:1],5,2-8[8:1],6,2-6[8:1],5,
2<7V13[4:1],7,{4}2,{16}5,5,{8}5,4/6,7,
2/8,3,{4}4/B7h[4:1]/E7h[4:1]/B6h[4:1],{32}1,2,3,4,,,,,{8}1/8,2/7,
{16}6,3,{8}7,4/6,5/3,{16}3,4,{8}2,5/3,6/4,
{16}3,5,1,6,4,8,3,5,3,6,{8}2,{32}1/5,2/6,3/7,4,5,6,7,8,
{2}B7f/E7f/B6f/1b-5b[2:1],7bxh,
{16}7/3,,,1/5,,,{8}7-2[8:1]/2-6[8:1],{2}7/2,
{48}A8/5bxpp6<1-5qq4>1b[4:31],D1,A1,D2f,A2,D3,A3,D4,{6}A4,,,,,,,,,,,{2}5h[64:1],
B6,
,B7,
7h[64:1],B7,
,B6,
6h[64:1],B7,
,B6,
{1}B7,
E
