&title=悲報!ワイ!ニート!
&artist=Shu feat. 初音未來, 巡音流歌, 鏡音鈴, 鏡音連, KAITO, MEIKO
&first=0
&des=烂梗王
&lv_5=14
&inote_5=(165)
{1},
{8}Ch[4:3],,,,,{32}D6,A5,D5,A4,D4,,,,,,,,
{6}1x,28,71,24,75,C,
{16}D8h[32:3]/A8h[32:3]/E8h[32:3],,,A1h[32:3]/D2h[32:3]/E2h[32:3],,,D6h[32:3]/A5h[32:3]/E6h[32:3],,,A4h[32:3]/D4h[32:3]/E4h[32:3],,,
{4}7xpp3pp6[16:14],2h[4:4],,,,7xh[4:1],3xh[4:1],5w1b[8:1],5,
{16}3b-1[8:1]/7b-4[8:1],,,,37,,,,
2-5[8:1],8,,8,2,,7,,46,,2,,4>1[8:1],,,,4x<7[8:1],,,,4x,,,,
{16}8x/2-6[8:1],,,,25,,,,
7-4[8:1],1,,1,7,,2,,53,,7,5,6,4,5,,2-5[8:1]/4-8b[8:1],,,,24,,,,
{16}1b,,,,62,,,,
3-8[8:1],5,,5,3,,6,,17,,3,,5>2[8:1],,,,5x<8[8:1],,,,5x,,,,
{16}1x/7-3[8:1],,,,74,,,,
6-1[8:1],4,,4,6,,3,,
2h[4:1]/8h[4:1],,,,,,,,3-8[8:1]/7-4[8:1],,,,3b/7b,,,,
{16}
1,,1,,5-1b[8:1],,,3,,,3,,4-2[8:1],,,7,,,7,,5-1b[8:1],,,2,,,2,,C,,,,
{16}25,,,3,4,,6,,74,,,6,5,,3,,
{4}D2,D5,D8,B7/B6/B2f/B3,
{16}
1,,1,,5<8[64:10],,,4,,,4,,2>4-6[64:11],,,1,,,1,,7p3[64:10],,,8,,,8,,E1,,,,
{16}7-2[8:1],,,4,,,3,,3-6[8:1],,,7,,,8,,8x/2x,,,,3xpp5[32:6]/5x,,,,4xbh[4:1],,,,,,,,
{16}7v4[8:1],,,8,7,,3,,2v5[8:1],,,1,2,,6,,
{16}7-5[8:1],,,8,7>2[8:1],,3,,4-1b[16:2],,,,8,,,,
{16}7<4[8:1],,,1,1,,2,,3-7[8:1],,,5,5,,6,,8-4<6-2[16:7],,,,,,,,,,3,,3h[4:2],,,,
{4}7xp2q7[8:3],,,8h[4:2],
{4}6x>3<6[8:3],,,
{8}7,7x,
{8}4xh[4:1],,5,2x,4xh[4:1],,3,1x,
{4}2x/4x,56,1bv4[8:1]*v6[8:1],C,
{16}
7<4[8:1]/3-8[8:1],,,,3/7b,,,,2<7[8:1],,3,4,2-5[8:1],,5,,2/6x-3[8:1],,7,,6/1x-5[8:1],,8,,1x<6[8:1]*>4[8:1],,,,1,,,,
5xw1b[8:1],,,,5b,,,,6>3[8:1],,4,4,6-8[8:1],,2,,1xq5[8:1]/6,,,,1-3[8:1]/7-3[8:1],,6,,7x-5[8:1]/1x-5[8:1],,,,1x/7x,,,,
4-1b[8:1]*-7b[8:1],,,,4b,,,,2-7[8:1],,6,6,2v5[8:1],,5,,2/7x-4[8:1],,8,,7/3x<6[8:1],,2,,3x-7[8:1]/8x-5[8:1],,,,38,,,,
{8}6/8<5[8:1],1,2/8x,,2/4>1b[8:1],5,6-3[8:1]/4x,,2-7[8:1]/6,,2/8w4[8:1],,8b,,1x-5[8:1],,
{16}
1b-3[8:1]/6x,,,7,1-5[8:1],,7,,1b-3[8:1]/6x,,,7,1-5[8:1],,7,,1b/6xV85[64:15],,6x,,4p8b[32:4],,4,,,,,,
2x-5[8:1]/6x,,1,,2x/6,,,,4/7x,,6,5,7x-4[8:1],,8,,3x-6[8:1],,2,,8x,,,,
6/4-2-5-1b[64:22],,,,8x,,,,7-3[8:1],,,,
7b-5[8:1]/2x,,,1,7-3[8:1],,1,,7b-5[8:1]/2x,,,1,7-3[8:1],,1,,7b/2x<8-4[64:15],,2x,,5,,5,,7,,3x,,5,,7,,
6/2-5[8:1],,1,,26,,8,,3/7<4[8:1],,8,,73,,2,,
1x,4,3,4,1x,5,3,5,1x,6,3,6,D1h[4:1],,,,
(82.5)
{4}7xs3[8:4],,,8>1-4<6b[16:9],
{4}3h[4:2],,
{64},2bx,1xbh[64:14],,
,,,,
,,,,
,,,,
{8}B5h[8:1]/B6h[8:1],Cf,1h[16:1],1h[16:1],2h[16:1],3h[16:1],
(165)
{8}7x,,Ch[4:2],,,,
{32}D6,A5,D5,A4,D4,,,,
{8}2,2,3,3,64,64,57,57,{32}E8,E1,E2,E3,E4,E5,E6,E7,
{4}E8h[8:2],4-1[8:1]*-8[8:1],4,
{16}2b/7b,,1,,
{24}2-5[8:1],,8,
{16}3,,2/6>3b[8:1],,7,,4,,2,,7/1,,3,,{24}8<5[8:1],,2,
{16}7,,8x>3[8:1],,,,8x,,,,
{24}8/2>5[8:1],,,8,,,6<1b[8:1],,,7,,,
{24}4-8[8:1],,,3,,,2,,,1,,,
{16}1x/7bx,6,,8x/2bx,3,,2x/6bx,5,,7x/3xb,4,,1b/6b,,,,
{8}
8-5b[8:1],8,8b-3b[8:1]/1x,,6x/8b-5b[8:1],,8b/2x,,
{16}3/7,,5,,{24}1>4[8:1],,7,
{16}2,,1x<6[8:1],,,,1x,,
,,
{24}3,,,5,,,6v1[8:1],,7,4,,,6>3b[8:1],,,5,,,
{8}2,2,7,1,3>5-2b[16:5]/5,17,,,B7h[4:1],,
{32}1xb,2xb,3xb,4xb,,,,,
{8}4xqq1[8:5]/8<5b[8:1],,8,,8<5b[8:1],,8,,8>3[8:1],,8x<5[8:1],,8x,,
{12}24,,46,,58,,{32}5bV71b[8:1]/8b,4x/7x,3x/6x,2x/5x,,,,,2xb,3x,4x,5x,,,,,
{4}
7xb-4b[8:1],
{32}7/3b,2,1,8,,,,,
{4}1w5[8:1],1,{16}3/7v4[8:1],,6,,
{16}37,,
{16}1,,{24}2<7b[8:1],,8,{16}3,,6,,6,,2/5,,8,,{24}4>1[8:1],,6,
{16}3,,4x<7[8:1],,,,4x,,,,
{16}28,,6,,35,,2,,7,5,6,5,7,,3,,
2,4,2,4,3,5,3,5,4,6,5,7v6[131#128:355]*v6[131#128:355],2v3[8:28]*v3[8:28],,,,
{4},,,,,,,,,,,,,,,6pp5>2[8:12],
{4}3x,3,3,3,1x,1,1,8,
{16}1h[384:1]/8h[384:1],,,5h[384:1]/7h[384:1],,,2h[384:1]/3h[384:1],,,7h[384:1]/1h[384:1],,,4h[384:1]/5h[384:1],,,,
{4}E3/E7,
{1536}
4-1[8:1]*-1[8:1],5-8[8:1],,,
,,,,
,,,,
,,,,
,,,,
,,,,
,,,,
,,,,
,,,,
,,,,
,,,,
,,,,
,,,,
,,,,
,,,,
,,,,
{3},{24},,,
{4}C,2q3[32:17]/7p6[32:17],,,,B5/B4,A7/B7,E3/D3,18,
{16}
2>5b[8:1]/6-1[8:1],,,,6/2b,,,,7>2[8:1],,6,5,7-4[8:1],,4,,7/3x-6[8:1],,2,,3/8x-4[8:1],,1,,8x>3[8:1]*<5[8:1],,,,8,,,,
4xw8b[8:1],,,,{64}4b`B8,,,,,,,,,,,,,,,,
{16}3>8[8:1],,6,6,3,,5,,2,5,4,7,5,,2x/8x,,3x-8[8:1]/7x-4[8:1],,,,3b/7b,,,,
5-8b[8:1]*-2b[8:1],,,,5b,,,,7-1[64:7],,4,4,7-4[8:1],,2,,7/3x,,2,,6x-2[8:1]/1x-4[8:1],,8,,61,,,,
{8}3/1>4[8:1],8,7/1x,,7/5<8b[8:1],4,3/5x,,3-6[8:1]/5x,2,7-2[8:1]/3,8,7/1w5[8:1],,1b,,1x-5[8:1],,
{16}
1b-3[8:1]/6x,,,7,1-5[8:1],,8,,1b-3[8:1]/6x,,,7,1-5[8:1],,8,,1b/6xV85[32:7],,6x,,4p7b[32:6]*>8b[32:6],,4,,,,,,
2x>4[8:1]/6x,,1,,6-8[8:1]/2,,5,,2-5[8:1]/6,,1,,7-4[64:8]/2,,6,,3-7[8:1]/7,,2,,8x/3x,,,,
6/1pp1-4b[64:24],,,,8x,,,,7-3[8:1],,,,
7b-5[8:1]/2x,,,1,7-3[8:1],,8,,7b-5[8:1]/2x,,,1,7-3[8:1],,8,,7b/2x<8-4b[64:15],,2x,,5,,5,,7,,3x,,5,,7,,
6/4,,2,4,3,,26,,3/5,,7,5,6,,84,,
3,6,4,5,2,6,4,5,1,6,4,5,8,6,4,5,
{4}E2h[4:6],,E8h[4:4],,Ch[4:2],,E1f,1xw5b[8:1],1b,
{16}3,7,5,7,1,7,5,7,3,7,5,7,2,6,4,6,8>3[8:1],6,4,6,8x<5[8:1],,,,8x,,,,
26,,,,
{16}6,2,4,3,8,2,4,3,6,2,4,3,8,2,4,3,6,2,4,3,8w4b[8:1],,,,8b,,,,
{16}6b-8[8:1]/2b-5[8:1],,,,62,,,,
7-4[8:1],1,,1,7,,2,,53,,7,4,5<8[8:1],,,,5x>2[8:1],,,,5x,,,
{16}7x-3[32:5],,,1,,7x,,,,
2-5[8:1],8,,8,2,,7,,46,,2,4,3,6,5,7,4x,,,,3x/6x,,,,
{24}4,6,5x,6,,4,6,5x,6h[6:1],,,,{16}3x,,2,4,3x,,6/4x,,
{24}5,3,4x,3,,,6xh[4:2],,,,,,2h[4:1],,,,,,,,,,,,
{8}7xbh[1:1],,,,5,,4,,3xbh[8:5],,5,6xbh[8:2],,,
{1536}
4xbz8-2v3-5[16:14],5xbs1-7v6-4b[16:14],,,
,,,,
,,,,
,,,,
,,,,
,,,,
,,,,
,,,,
,,,,
,,,,
,,,,
,,,,
,,,,
,,,,
,,,,
,,,,
{1},{24},,,,
,
{1}Ch[384:1]f/B7/E7/B6/B2/E3/B3,,
E
