&title=メイデー、メイビーネイビー
&artist=sasakure.UK feat.sorako
&first=0.23
&des=Yuzuki
&lv_6=12+
&inote_6=(155)
{1},
{8}
6h[4:1]/4h[4:1],,,5h[8:3]/3h[8:3],,,,6h[8:3]/5h[8:3],,,,56,,,,,
2h[4:1]/4h[4:1],,,1h[8:3]/3h[8:3],,,,1h[8:3]/8h[8:3],,,,8qq8[16:5]/1,,,,,
E2,,E3,,E4,,E8,,E7,,E6,,C,,A8,,A1,,A2,,A3,,A4,,Ch[8:6],,,,,,E1/B8/B1,,
6hx[4:6]/5x-3[8:1],,,,1-7[8:1],,,,5-1[8:1],,,,8<2[16:3],,C,,1h[4:6]/7x^5[8:1],,,,4^2[8:1],,,,8-4[16:2],,,,3x^8[16:2]*^6[8:1],,,,
7bpp4[2:1],,4,,3,,2,,1-6[8:1],,,,5-2[8:1],,,,4qq5[2:1],,6,,7,,8,,1<2[2:1]*s5b[4:1],,,C,,,,,
6b/4b,,6,,6/3h[8:1],,6,,6/2^8[32:4],,6,,6/7v5[8:1],,6,,6,E2,6,E3,6,E4,6,C,6xqq5<2[2:1],5x,3hx[2:1],,,,,,31,,3,,3/4hx[8:1],,3,,3/6qq8[2:1],,3,,3,,3,,3h[4:1]/1h[16:3],,,5h[4:1]/3h[16:3],,,7h[4:1]/5-3-6-2-7-1[4:3],,,,,,,,Ch[64:1],,6>7[8:12]/5h,,,,2h,,,,7h,,,,5h[4:1],,,,3<2[8:12]/4h,,,,7h,,,,2h,,,,4h[4:1],,,,6h[4:6]/5h,,,,3h,,,,1h,,,,7h,,,6x/5x,6b/5b^2b[4:1],,7,,8,,1,,2bx/8bxp4[4:1],,2,,3,,5,,6bpp4qq5b[1:1],,,,,,,,,,,,A7,E6,C,E4,1-6[8:1],,1b/5b,,4x^7[8:1],4x,2h[4:1],,8-4[8:1],4,3V17[16:3],,5hx[4:1],,6xq1[16:5],,7,7,8h[4:1],,2^5[8:1],,8-3[8:1],,6^1[8:1]*^3[8:1],,6bpp4[16:6],,2b,,,,
5-1[8:1],,5b/7b,,8x^5[8:1],8x,3h[4:1],,4v6[8:1],2,1>8[16:3],,7hx[4:1],,,1x,1x/E7f/B6,1,1,1,1,1,1,1,7x/B2/E3f,7,7,7,7,7,7,7,3x/B7/B8f,3,3,3,3,3,3,3,
{16}
6x,5x,7x,4x,8x,3x,1x,2x,4x,3x,5x,2x,6x,1x,7x,8x,
{8}
C,,,E6,,,,,E3/E5,,,B8,,,,,A7/B5,,,B2,,,,,C/A1,,,B6,,,,,E7,,B5,B4,,,,,E2,,,C,,,,,D8,,A6,A5,,,,,Ch[8:3]/B3,,,E1/A1/A8,,,,7x,7bx<3[2:1],,3,,2,,1,,8>6[2:1],,6,,7,,8,,4-1[2:1],,5,,6,,7,,8q1[2:1],,3h[2:1],,,,,2x,2x^5[4:1],,5x^8[4:1],,8x^3[4:1],,3x^6[4:1],,6x^1b[4:1],,1x>5b[4:1],,5x<1b[4:1],,1x>5b[4:1],,5x<5b[2:1],,,,,,8bqq8[16:6],,,,,,Ch[8:3],,,,6h[2:1]/5,,4,,3,,2,,1h[2:1]/4,,5,,6,,7,,6h[2:1]/5h[4:1],,,,5,,56,,4/3pp4[2:1]*V14[2:1],,,,,,,,7/5h[4:1],,4,,2/4h[4:1],,5,,6h[4:1]/4h[4:1],,,,1h[4:1]/3h[4:1],,,,E8,,E7,,E6,,E2,,E3,,E4,,
7^2b[8:1],2<6b[8:1],,,4b-1[8:1]*-7[8:1],,4b,,8-5[8:1],8,3,3,2-6[8:1],2,5-8[8:1],5,1pp1b[16:4],1,,7x,7h[4:1],8,8,7,5h[4:1],4,4,5,6^1[8:1]/2^5[8:1],,2bqq5[16:6],,2bx,,,,8-3[8:1]*-5[8:1],,8b,,2^5[8:1],2,6,6,7p3[8:1],7,2^7[8:1],1x,2bxqq7[16:5]/6bx^3[16:2],,,,5bx,5x,5x,5x,5x,5x,5x,5x,3bx/B6f,3,3,3,3,3,3,3,7bx/E2f,7,7,7,7,7,7,7,
{16}
1hx[16:1],8hx[16:1],2hx[16:1],7hx[16:1],3hx[16:1],6hx[16:1],4hx[16:1],5hx[16:1],3hx[16:1],6hx[16:1],2hx[16:1],7hx[16:1],1hx[16:1],8hx[16:1],,,
{16}
7b^5[8:1],,,,73,,,,2b^8[8:1],,,,24,,,,6b^4[8:1],,,,62,,,,3b^1[8:1],,,,37,,,,
{8}
6xpp4[16:7],6x,3x,3x,2x,2x,1x,1x,8>5[8:3],8x,6x,6x,7x,7x,8x,8x,
{16}
3b^1[8:1],,,,37,,,,6b^4[8:1],,,,68,,,,2b^8[8:1],,,,26,,,,7b^5[8:1],,,,73,,,,
{8}
2xpp1[16:7],2x,8x,8x,7x,7x,6x,6x,5x-7-4[16:5],5x,1x,1x,2x,2x,3x,3x,
{16}
4b-2[8:1],,,,48,,,,7b-5[8:1],,,,78,,,,3b-1[8:1],,,,36,,,,8b-6[8:1],,,,84,,,,
{8}
2xpp8b[16:7],2x,7x,7x,6x,6x,5x,5x,4V61b[8:3],4x,2x,2x,3x,3x,4x,4x,
{16}
7b-5[8:1],,,,73,,,,2b-8[8:1],,,,24,,,,6b-4[8:1],,,,62,,,,3b-1[8:1],,,,37,,,,
{8}
6xpp5b[16:7],6x,4x,4x,3x,3x,2x,2x,1s5b[16:6],1x,5x,5x,6x,6x,7x,7x,
6h[4:1]/4h[4:1],,,5h[8:3]/3h[8:3],,,,6h[8:3]/5h[8:3],,,,56,,,,,
2h[4:1]/4h[4:1],,,1h[8:3]/3h[8:3],,,,
{24}
8<1[8:15]/E4,B4,B5,E6,
