&title=Infinite Strife,
&artist=BlackYooh vs. siromaru
&first=0.071
&des=Lethe
&lv_5=14+
&des_5=
&inote_5=
(198){4},{16},,,,,,,,,,,,5/4>5[4:13],
,,,,,,,,E6,,,,,,,{2}E7,
E8,
E1,E2,
E3,E4,
3/7-1-3-5-7[4:13],B3,
B1,B7,
B5,B3,
{1}3h[2:1],
{16}3-8[8:1],4,{8}2,3,5,{16}7-4[8:1],8,{8}6,7,2,
3/5,4/6,5/7,6/8,{2}8h[4:1]/6h[4:1],
{16}2-5[8:1],1,{8}3,2,8,{16}6-1[8:1],5,{8}7,6,3,
2/8,1/7,8/6,7x/5x,{2}7xh[4:1]/5xh[4:1],
{16}4-7[8:1],6,{8}2-5[8:1],4,2,{16}1,8,{8}7h[8:1],2>5[8:1],8-4[8:1],
2-6[8:1],8<5[8:1],2,8,{2}2b,
{16}5-2[8:1],3,{8}7-4[8:1],5,7,{16}8,1,{8}2h[4:1],{4}6h[8:1],
{16}5-8[8:1],4,{8}7-4[8:1],5,7,{16}2x,3x,4x,5x,6x,7x,8x,1,
{1}2b-4-6z2b[4:13]/6bV82z6[4:13],
{2},,,,,,3h[2:1],
6h[2:1],
{32}1,2h[32:11],,,,,,,,,,,{8}4h[8:3],,,{4}6h[4:1],
{32}8,7h[32:47],{4},,{16},,,{8}5,4,
{1}3h[2:1],
{16}6/1pp8[2:1],,,,,,,B6,{2}B5,
{16}1/5pp4[2:1],,,,,,,B1,{4}B2,3,
{16}7/2qq3[2:1],,,,,,,B6,{8}B5,{16},,,,1,2,
8h[8:3],,,4,,,{8}6,{16}2h[8:3],,,4,,,{8}6,
3,3,5,5,4,4,6,6,
8,8,2,2,4,4,6,6,
{2}6/2h[8:7],{16}E1,,,E7,,,{8}E5,
{16}1/5h[4:3],8,7,6,,4,3,2,{2}1h[4:1],
{24}1b-4-2-5b[4:13]/5b-8V61[4:13],2/6,7/3,4/8,{1},,,{4},,,{16},{48},{24}8b-6-4-2-8[4:13]/7b-1V35-7[4:13],
6/1,2/5,3/4,{1},,,{4},,,{16},{48},{4}5/2V48[4:1],
{8}2,7-3[8:1],,7/1h[4:1],,,{4}4/7V51[4:1],
{8}7,2-6[8:1],,2/8h[4:1],,,{4}6/3-5-2[4:1],
{8}3,7-4[8:1],,7/1h[4:1],,,{4}3/6-4-7[4:1],
{8}6,2-5[8:1],,2/8h[4:1],,,3/5,
2,6/4,7,3/5,1,6/4,8,
1b/5,2/6b,3b/7,4/8b,{16}2,1,3,8,4,7,5,6,
{2}Cfh[2:3],E8/D8,
E6/D6,E4/D4,
{8}2/6,{16}3x,8,{8}3,{16}5x,2,{8}5,{16}4x,7,{8}4,{16}6x,1,
{8}6,7h[8:1]/3h[8:1],,1/5,2/6,3/7,4/8,5/1,
7/3,{16}6x,1,{8}6,{16}4x,7,{8}4,{16}5x,2,{8}5,{16}3x,8,
{8}3,6h[8:1]/2h[8:1],,6/2,1/7,3/4,8/2,6/5,
3/8,{16}2,1,{8}2,{16}7,8,{8}7,{16}3,4,{8}3,{16}6,5,
{8}6,3h[8:1]/8h[8:1],,8/3,1/2,8/3,7/4,6/5,
{4}4/3-8[8:1],{8}3,6-1[8:1],,6/5,,2>4[8:1]/7<5[8:1],
,7/2,,1/8,8/1,7/2,6/3,5/4,
6/1>4[8:1],{16}7,7,{8}1-6[8:1],{16}5,5,{8}1>4[8:1],{16}7,7,{8}1-6[8:1],{16}5,5,
{8}1,B5/E5/B4,,8b/1b,8/1,7/2,6/3,5/4,
3/8<5[8:1],{16}2,2,{8}8-3[8:1],{16}4,4,{8}8<5[8:1],{16}2,2,{8}8-3[8:1],{16}4,4,
{8}8,B5/B4/E5,,8b/1b,{16}3h,5,1h,7,{8}5h[8:1],1,
{32}1b/5b,4x/8x,3x/7x,2x/6x,{8}5xh[8:1]/1xh[8:1],,3/4,,5/7,,6/1,
,3h[4:1]/7h[4:1],,,2x/1x,8x/7x,5x/6,3x/4x,
{4}2/8-3[8:1],{8}8,1-6[8:1],,1>3[8:1]/7<5[8:1],,1b-5[8:1]/7b-3[8:1],
,7b/1b,,Cf/B4/B8/B6/B2,{16}3,4,2,5,1,6,8,7,
{4}1xV73[4:1]*V73[4:1],3-5-1b[4:1],1V75[4:1],5V31[4:1],
1<5b[4:1]*<1[2:1],5>1[4:1],{2}1w5[8:1],
{8}8/2h[8:1],8,7/3,4/6,3/5h[8:1],3,6/2,7/1,
8/2h[8:1],8,3/7,4/6,{2}5h[2:1]/Cfh[2:1],
{16},,,,,,3-8[8:1],4,{8}3b,{16},,,,6-1[8:1],5,
{4}6b,{16}4,3,{8}2b-5[8:1],{16},,8,7,{4}6bh[4:1],
{16}1,2,3,4,8,1,2,3,7,8,1,2,6,7,8,1,
5,6,7,8,4,5,6,7,{4}8h[8:1]/4h[8:1],{32}4b/8b,3/7,2/6,1/5,,,,,{4}8xV26[4:1]*V26[4:1],
6-4-8b[4:1],8V24[4:1],4V68[4:1],
8>4b[4:1]*>8[2:1],4<8[4:1],{2}8w4[8:1],
{8}1/7h[8:1],1,2/6,5/3,6/4h[8:1],6,3/7,2/8,
1/7h[8:1],1,6/2,5/3,{2}4h[4:1]/Cfh[4:1],
{8}3/4,4/3,3/2,3/2,2/1,1/2,1/8,8/1,
8/7,7/8,7/6,6/7,6/5,5/6,5/4,4/5,
{24}2b/8,3,4,5,,,7b/1,6,5,4,,,1/2b,3,4,5,,,8/7b,6,5,4,{48},,,,{16}2,
1,2,1,2,1,2,1,{4}2h[16:7],6h[16:3],
{16}3,4,5,6,7,8,1,2,{2}3/5-3-7[4:1],
{8}5h[8:1],{16}6,5,{8}6-1V75[8:3],4/7,{4}3h[8:1],3h[8:1],
{2}1s5[8:1]/8z4[8:1],{8}7h[16:1]/2h[16:1],7h[16:1]/2h[16:1],{16}1z5[4:1],8,{8}1,
,,{4}7z3[4:1],,,2h[8:1]/5h[8:1],
{16}3,4,{8}3,2h[16:1]/5h[16:1],2h[16:1]/6h[16:1],6h[16:1]/3h[16:1],3h[16:1]/7h[16:1],
{16}4h[16:1],8h[16:1],2h[16:1],6h[16:1],{8}B1/B5/B7/B3,Cf,{16}2h[16:1],4h[16:1],2h[16:1],4h[16:1],2h[16:1],4h[16:1],2h[16:1],4h[16:1],
{4}2b,{8}7h[16:1]/4h[16:1],7h[16:1]/3h[16:1],3h[16:1]/6h[16:1],6h[16:1]/2h[16:1],2h[16:1]/5h[16:1],5h[16:1]/1h[16:1],
{1}1V35p1[2:1]/5V71p5[2:1],
{4}2-5[8:1],2/6-2[8:1],{16}6/1,,,B7/B8,,,{8}B3/B4,
{4}6-1[8:1]/2-4[8:1],6/2,{2}Cfh[2:1],
{4}7-4[8:1],7/3-7[8:1],{16}3/8,,,B2/B1,,,{8}B6/B5,
{4}3-8[8:1]/7-5[8:1],3/7,{16}E3,E4,E5,E6,E7,E8,E1,E2,
6h[16:3],,,7h[16:3],,,{8}8b,{16}4h[16:3],,,3h[16:3],,,{8}2b,
6/4,4/6,5/2,5/2,3/7,7/3,4/8,4/8,
{16}2,3,4,5,6,7,8,1,2/6,5,4,3,2,1,8,7,
6/2,3,4,5,6,7,8,1,{32}6/2,5,4,3,2,1,8,7,6,5,4,3,2,1,8,7,
{1}6bq2<6[2:1]/2bq6>2b[2:1],
B6/B2/E3/E7/E6/E2/Cfh[4:3],
{16}2b-6[8:1],3,{8}4,{4}2/7b-4[8:1],{16}7/3b,,,2x/5x,,,{8}8x/1x,
{16}7b-3[8:1],6,{8}5,{4}7/2b-5[8:1],{16}2/6b,,,7x/4x,,,{8}8x/1,
{16}2h[8:1]/5h[8:1],,,4h[8:1]/7h[8:1],,,{8}4b/7b,{16}6h[8:1]/1h[8:1],,,8h[8:1]/3h[8:1],,,{8}3b/8b,
6/5,7/4,8/3,2/1,{16}E3,E4,E5,E6,E7,E8,E1,E2,
{4}E3/7-4-6[4:1],{8}7/3,2,{4}1b-5-2[4:1],{8}1/6,7,
8b,{24}E2,C,E6,,,,E8,C,E4,,,,{8}2b/7b,{16}4,5,4,5,
3,6,3,6,2,7,2,7,1,8,1,8,{32}2x,3x,4x,5x,6x,7x,8x,1x,
{8}6bh[4:1]/2bh[4:1],{16},,,,3,4,{4}3-8[8:1],3/6-1[8:1],
{8}5/6,{16},,,,E4,E5,E6,,,E3,,,{8}E7,
{16}1x/E6/B5/E5,,,7x/E4/B3/E3,,,{8}4x/E1/B8/E8,{16}6x/E2/B2/E3,,,1x/E6/B5/E5,,,{8}7x/E3/B3/E4,
2xh[8:1]/8xh[8:1],{16},,,,3,5,{6}4h[16:3],{24}7,6,{8}5,{24}1,2,3,
{16}4h[8:1]/8h[8:1],,,6h[8:1]/3h[8:1],,,{8}1h[8:1]/5h[8:1],{16},,8,7,1,6,2,5,
{4}3-5-1[4:1],3/7-4b[8:1],7,{8}5/3,4/6-4-8b[4:1],
,6/2-5[8:1],,2,,6/4,{16}2,1,{8}2,
3b,{16}6,5,{8}6,7b,{16}2-5[8:1],1,3,8,{8}2b,{16}7-4[8:1],8,
6,1,{8}7b,{16},,2,2,3/1,,,8/2,,,{8}1/7,
{16}3,5,3,5,4,6,4,6,3h,5,1h,7,1h,5,3h,1,
5bh,7,1bh,7,3bh,1,5bh,7,{32}2b,3,4,5,6,7,8,1,2b,3,4,5,6,7,8,1,
{4}6b/2b-4-8[4:1],{8}2,7-3[8:1],,7/2>5[8:1],,2/7-4[8:1],
,7,1b-5[8:1],8b-6[8:1],1b-3b[8:1],8b-4b[8:1],1b,8b,
{4}2-5[8:1],2/8-4-7[4:1],{8},,,6/8,
,8/1,7/2,6/3,5/4,3/1,5/4,6/8,
{4}1/7-5-1[4:1],{8}7,2-6[8:1],,2/7<4[8:1],,7/2-5[8:1],
,2,,6/4h,8/5h,7/4h,6/3h,5/2h,
{16}3,4,3,4,2,5,2,5,1,6,1,6,8,7,8,7,
1b,6b,8b,7b,1b,6b,8b,7b,{32}D1,A8,D8,A7,D7,A6,D6,A5,D5/D1,A4/A8,D4/D8,A3/A7,D3/D7,A2/A6,D2/D6,A1/A5,
{4}D1/D5/8xV24b[8:1]/4xV68[8:1],4b/8b,{16}6bh[8:1]/2bh[8:1],,,4bh[8:1]/8bh[8:1],,,{8}4b/8b,
{4}2xV46b[8:1]/6xV82[8:1],6b/2b,{16}8bh[8:1]/4bh[8:1],,,6bh[8:1]/2bh[8:1],,,{8}6b/2b,
{4}7/8-4-2[4:1],{8}8,6-8[8:1],,6/5,,1/2,
8/3,7/4,6/5,6b/5b,{16}1,8,2,8,3,8,4,8,
{4}5<7[8:1],{8}5,2-5[8:1],,2,{4}8-4[8:1],
{8}8,2,{16}1,8,1,8,{32}2/7,3,4,5,6,7,8/5,1,2,3,4,5,{8}6/1,
{1}1h[4:3]/6h[4:3],
{2}4h[4:1]/2h[4:1],8bh[4:1]/1bh[4:1],
{16}3bh,5,1bh,5,7bh,5,1bh,5,3bh,5,1bh,5,7bh,5,1bh,5,
{24}3x,4x,3x,4x,3x,4x,3x,4x,3x,4x,3x,4x,3x,4x,3x,4x,3x,4x,3x,4x,3x,4x,3x,4x,
{1}3bh,
E
