&title=私たちは未来の花
&artist=三森すずこ
&first=0.42
&des=三森bbben
&lv_1=13
&inote_1=(66)
{1},{4},,,
{8}4,3,2,,5,6,7,8,1,2,3,4,5,6,7>6[4:2],,,,{8},
{16},
(183)
{8}
3,3,,
(183.001)
{4}
1bqq5[4:7]/7bpp3[4:7],,,,,,,,,,,,28,
{16}3,5,4,6,3,,1,8,2,7,8b,,,,
(183)
{8}2-4[8:1],1,8,7,6,5,4,3,2,1,8-2[8:1],7,6-8[8:1],5,4-6[8:1],3,2-4[8:1],2,1,,
7,7-5-3-1-7[4:3],7,7/4h[4:3],,,,,,,,,
7-5[8:1],8,1,2,3,4,5,6,7-5[8:1],8,1,2,3-1[8:1],4,5,6,6>7[4:6],,
{4}B6,B5,B4,B3,B2,B1,B8,7>6[4:4],B7,B1,C,B3,B6,
{8}1b/5b,3b/7b,,,
7h[8:3],6,5,4,,36,45,,
2h[8:3],3,4,5-7[8:1]b,,,1,,
3h[8:3],2,1,8,,4,6,4,
6h[8:3],7,8,1-3[8:1]b,,,5,,
7h[8:3],6,5,4,,,6h[8:2],5,4h[8:2],,2h[8:2],,8h[8:2],,6h[8:2],,
5h[4:2],,2,,6h[4:2],,8,,4h[4:1],,1,,3b/4b,1b-5[8:1]/8b-6[8:1],,1b/8b,
,,48,37,62,51,,7-3[8:1],,,1>5[4:1],,5<1[4:1],,
1,,5xh[4:1],,1,,5,5,2,,
65,65,65,65,,65,65,1h[8:7]/5,,8,7,6,,3,3,7h[8:7]/1,,8,6,5,4,3,2,
1h[4:4]/6,6h,,E3,B3,,C,,E7,
2,8,8,,3,4,5,6,7>2[4:1]b,7,,,5,,
4,3,2<7[4:1]b,2,,4,4,,5,6,7>2[4:1]b,7,,,5,5,,17,,35,26,1V37[4:1]/7V51[4:1],,,,{16},,
{8}
2>5[8:1],1,8,7h[8:3],,8,8,,
7<4[8:1],8,1,2h[8:3],,1,1,
{16}3,4,3,,21,,21,,
7,8,7,,56,,56,,
3,4,3,,21,,21,,
7,8,7,,56,,56,,
43,,43,,12,,21,,
7,8,7,,65,,65,,43,,
1,2,3,4,8,7,6,5,4,3,2,1,8,7,6,5,
{64}2b,3x,4x,,
,,,,
,,,,
,,,,
,,,,
,,,,
7b,6x,5x,,
,,,,
,,,,
,,,,
,,,,
,,,,
2b,3x,4x,,
,,,,
,,,,
,,,,
7b,6x,5x,,
,,,,
2b,3x,4x,,
,,,,
8b,7x,6x,,
,,,,
1b,2x,3x,,
,,,,
{16},,,,,,
3bqq3[4:1],,,,3q8>3[4:1],,E2f,,,,5x,,5,,,,
6bpp6[4:1],,,,6>8[4:1],,E8f,,,,4x,,4x,,,,
3bqq5[4:1],,,,5<2[4:1],,E2f,,,,5x,,5x,,,,
7pp4[4:1],,,,3,,2,,1-4[8:1],,,,,,,,,,
7>2[8:1],,,,47,,,,35,,4,,5,,
6>3[8:1],,,,61,,2-7[8:1],,,,2/6-3[8:1],,,,,,,,
{24}8,1,2,3,4,5,6,7,8,1,2,3,4,5,6,7,8,1,2,3,4,5b-1[8:1],,,
{16},,,,,,,,1,,28,,37,,46,,
3bqq3[4:1],,,,3<3[4:1]/6,,6h[8:3],,,,,,,,,,
6bpp6[4:1],,,,6>6[3:1],,,,1x,,,,5,,,,
3b/4b,,1b-5[8:1]/8b-6[8:1],,,,1b/8b,,,,1b/8b,,
{32}Cf,B6/B5/B4/B3,E6/E5/E4,,{16},,,,,,
4,5,3,6,2,7,1,8,1,,7,7,
3bqq5[4:1],,,,5<2[4:1],,,,,,,,,,
6bpp4[4:1],,,,4>7[4:1],,,,,,,,,,,,
36,,,,,,3qq5<4[4:3]/6pp4>5[4:3],,,,,,,,,,,,,,,,,,,,
5x,,,,6x,,
{8}7x,
E2,B2,B3,E4,
E2/5x,B2,B3/6x,E4/7x,
E2,B2,B3/7x,E4,
E2/6x,B2,B3/5x,E4,
E2/7x,B2,B3/8x,E4,
E2/7x,B2,B3/6x,E4/6x,
B5,B4,E2,B1,
E8/4x,B7,B6/2x,E6/2x,
E8,B7,B6,E6,
E8/4x,B7,B6/2x,E6/2x,
E8,B7,B6/1x,E6,
E8/2x,B7,B6/3x,E6,
E8/4x,B7,B6/3x,E6/3x,
E8,B7,B6,E6/2b-6[8:1],
,,,5b-8[8:1],
4,,2,2,
E2/8bx,B2,B3,E4,
E2/5x,B2,B3/7x,E4/7x,
E2,B2,B3/8x,E4,
E2/7x,B2,B3/6x,E4,
E2/5x,B2,B3/6x,E4,
E2/7x,B2,B3/8x,E4,1x-4[8:1]*-6[8:1],,,,
{4}5<1[4:1],1>5[4:1],5q1[4:1],1q5[4:1],
5<1[4:1],1>5[4:1],5pp6[4:2]*qq4[4:2],,Cf,,
{16}18,2,3,4,5,6,7,8,1,2,3,4,5,6,7,81,,,45,3,2,1,8,7,6,5,4,3,2,1/8-4[8:1],,,
{8},2-7[8:1],2,,4,4-1[8:1],4,,7-3[8:1],,1-5[8:1],,1,,
3>6[4:2],3h[8:5],,,,,,,6<3[4:2],6h[8:5],,,,,,,
35,4-1[8:1]/6,,8,7-3[8:1],,1,1,8-4[8:1],,8,,
2-7[8:1],,3q8>6[4:3],,3,,,,,,,,7s3[4:2],7,,,,,,,,,
7-5[8:1],8,1,2,3,4,5,6,7,8,1-7[8:1],2,3-1[8:1],4,5-3[8:1],6,7-5[8:1],7,8,,
2,2-4-6-8-2[4:3],2,2/5h[4:3],,,,,,,,,
2-4[8:1],1,8,7,6,5,4,3,2-4[8:1],1,8,7,6-8[8:1],5,4,3,3<2[4:6],,
{4}B3,B4,B5,B6,B7,B8,B1,2<3[4:4],B2,B8,C,B6,B3,
{8}8b/4b,6b/2b,,,
{8}3,8,1,5,,6,,2-6[4:8],
