&title=[爆]雑踏、僕らの街
&artist=トゲナシトゲアリ
&first=-0.28
&des=In_Cyan
&lv_7=15?
&inote_7=(171){4},,,,{32}2b,
3/1,4/8,7/5h[32:21],{8}6<4>6[8:13],,,,,,,{1}5h[4:3],
{4}4h[4:3],,,5,
{1}6h[4:3]/7>5[8:5],
(85.5){16}3/1V35[8:1],1,1,1,1/7,7,7,7,5/2,{32}3,4,3,4,3,4,{16}2,1,8,7,
3/5V31[8:1],5,5,5,5/7,7,7,7,{2}8h[8:7]/4h[16:13],
{8},,,,(171)3<6[16:1],{16}3,4,{8}3,8,
{16}6,5,7,5,{8}6>3[8:1],{16}6,5,{8}6,1,{16}3,4,2,4,
{8}3>8[8:1],{16}3,4,{8}3,5,{16}6,5,7,5,{8}6<1[8:1],{16}6,5,
{8}6,4,{16}3,4,2,4,{8}3<6[8:1],{16}2,4,{8}3,{16}7,8,
1,2,3,4,5,6,7,8,{2}1/3>6<3[4:5],
{16},,,5,{4}4h[2:1],{8},,,,6,
5,4,3,6,5,{16}4h[8:1]/3h[8:1],,,2h[8:1]/1h[8:1],
,,{8}7h[8:1]/8h[8:1],{16},6/5,,,{2}8/6<3>6[4:5],
{16},,,4,{4}5h[2:1],{8},,,,3,
5,3/4,4/5,6/5,{16}4,5,4,5,4,5,
{4}3/6-8[8:1],1b/A6f,{16}6/3-1[8:1],,,4,{8}3,5,
{16}3-7[8:1],,,4,{8}3,6,{16}8/3-5[8:1],,,1,{8}3,7,
{16}1/6-8[8:1],,,5,{8}6,4,{16}6-2[8:1],,,5,{8}6,4,
3/1,3/1,8/2,8/2,{16}2/7-5[8:1],,,8,{8}7,1,
{16}7-3[8:1],,,8,{8}7,2,{16}4/7h[16:3],,,5,{8}6,7,
{16}1b,4,3,4,3,4,8b,4,3>6[4:1],4,3,4,{4}7b,
{24},,,,,,1,8,1,8,{12}1,{4}1/8,5/6h[4:1],
,6h[4:1]/4h[4:1],,6h[4:1]/3h[4:1],
,6h[4:1]/2h[4:1],,4/3h[4:3],
,5h[4:1],,3h[4:1]/6h[4:1],
,3h[4:1]/8-4b[8:1],8bx,{8}1b-4[8:1],2b,
E6,7b-2[8:1],6b,A3,4b-1[8:1],5b,A8,7b-3[8:1],
6b,A2,1b-6[8:1],2b,A5,4b-1[8:1],5b,C,
{1}8b<4V68[2:1]*-2-4>8[2:1],
{8}A6,A5,E6,D6,{16}3,4/2,,6,{4}7/5,
{24}1/5,2,3,4,5,6,7/3,8,1,2,3,4,5/1,6,7,8,1,2,3/7,4,5,6,7,8,
1/5,2,3,4,5,6,7/3,8,1,2,3,4,5/1,6,7,8,1,2,{4}3/7,
{24}8/4,7,6,5,4,3,2/6,1,8,7,6,5,4/8,3,2,1,8,7,6/2,5,4,3,2,1,
8/4,7,6,5,4,3,2/6,1,8,7,6,5,4/8,3,2,1,8,7,{4}6/2,
{16}2b,2,4,3,7,7,5,6,4,5,3,4,{4}1h[4:1],
{16}7b,7,5,6,2,2,4,3,5,4,6,5,{4}8h[8:1],
{8}6/4,4,3/4,4,4/7,4,1/4,4,
{16}4,5,5,5,3,5,5,5,2,5,5,5,{4}1h[4:1],
{12}8b-4[8:7],7,6,7,6,7,5,7,6,7,6,7,
{8}8,6,5/3,2/4q8[8:1],{4}1h[8:1],{8}2,2,
{16}4,4,6,6,8,8,1,1,3,3,5,5,4,4,8-6-2-4[8:3],1,
7,2,{8}8,5,5,{4}5bh[4:1],{32}1b,4/8,3/7,2/6,{8}5/1,
{24}4,6,4,6,3,7,3,7,2,8,2,8,1,1,1,1,,,{4}B1/E2/D2/A2/B2/E3,
{24}5,3,5,3,6,2,6,2,7,1,7,1,8,8,8,8,,,{4}E8/D8/A7/B7/E7/B8,
{8}3/5,5,6/5,5,5/2,5,8/5,5,
{32}D8/A7,E7,B6,B5,E5,A4,D4/A3,E3,B2,B1,E1,A8,D6/A6,E7,B7,B8,E1,A1,D2/A2,E3,B3,B4,E5,A5,{4}Cf,
{24}1/5b,{48}2,5h,{24}3,4,5,6,7,8,1,2,3,4,5/1b,{48}6,1h,{24}7,8,1,2,3,4,5,6,7,8,
{16}5b/1>4[8:1],5h,,7h,{8}1h,6,{16}5h[8:1]/7h[4:1],,,,,1b,{48},,,,,,{24}8/4b,
{48}7,4h,{24}6,5,4,3,2,1,8,7,6,5,4/8b,{48}3,8h,{24}2,1,8,7,6,5,4,3,2,1,
{16}4b/8<5[8:1],4h,,2h,{8}8h,3,{2}2-6[8:1]/4-8[8:1],
{8}7,{16}2,2h[8:1],,8,{8}8h[8:1],{16}6,6h[8:1],,5,{8}5,4/6,
2,{16}7,7h[8:1],,1,{8}1h[8:1],{16}3,3h[8:1],,4,{8}4,5/3,
{32}4,5,3,6,{24}4,5,4,5,3,6,4,{48},{16}5,4,5,3,6,{12}4,5,4,
{1}5b/1<8-5-8[1:1]*-4-1[1:1],
{4},,,B7/E7/B6/E3/B2/B3/Ch[16:0],
{32}1b,2,3,4,7,6,5,4,{16}1,1,7,7,{32}2b,3,4,5,8,7,6,5,{16}1,1,7,7,
2b,4,3,6,4,5,3,3,{32}8b,7,6,5,4,3,2,1,4/8,5,6,7,8,1,2,3,
{16}4/7,5,7,6,7,7,7,7,{8}7h[8:1],{16}8,6h[8:1],,1,{8}5h[8:1],
{16}2,4,3,5,3,4,2,5,{2}1bh[4:1]/7b-3[8:1],
{32}8<8[4:9],1,{16}2,,,,,,,,,,,{4}7,
,,{2}5,
{4},C,{32},,,,,,,,,,,,,,,,1>1[4:7],
8,{16}7,,,,,,,,,,,{4}2,
,,{2}4,
{16},,,,8b/C/B3/E4/A3,,,2b/C/B6/A6/E6,,,{8}7b/C/B2/A2/E3,{4}1b/C/B5/B4/E5,
{8}6<1[8:1],1V37[4:1],{4}1,{8},2,4/1,5,
{16}3,4,{8}5,{16}4>1[8:1],5,{8}6,8,8,8/7,6/2,
3>8[8:1],8V62[4:1],{4}8,{8},7,8/5,3,
{16}6,5,{8}4,{24}5<8[8:1],4,3,2v5[8:1],,,,,,,,,{8}1,7/3,
6<1[8:1],1V37[4:1],{4}1,{8}4,2,4/1,6,
{16}3,4,{8}5,{16}4>1[8:1],5,{8}6,8w4[8:1],8,{4}8b,
{8},,1-4[8:1],7,5,8-5[8:1],2,4,
1-5[8:1],7,4,E6,E7,E8,{16}B1,E2,,B3/E4,
,,{8}B6/E6,8-4[8:1],2,5,1-6[8:1],7,5,
8-3[8:1],2,4,E6,E7,E8,{32}A1,A2,A3,A4,A5,A6,A7,A8,
{4}A1,{8}8b-5[8:1],7b,E4,2b-7[8:1],3b,A6,
5b-8[8:1],4b,A1,2b-6[8:1],3b,A7,8b-3[8:1],7b,
A4,5b-8[8:1],4b,C,2b-6[8:1],2,1-5[8:1],1,
8-4[8:1],8,7-3[8:1],7,{2}6-3-5[8:3]*-1-7[8:3],
{32},,,,,,,,,,,,,,,,1b/5b,2/6,3/7,4/8,5/1h[2:3],6,7,8,2,3,4,5,6,7,8,2,
3,4,5,6,7,8,2,3,4,5,6,7,8,2,3,4,5,6,7,8,2,3,4,5,6,7,8,2,3,4,5,6,
7,8,2,3,4,5,6,7,{4}8/Cf,{16}5,5,4,6,3,3,4h[16:1],2h[16:1],
4h[16:1],2h[16:1],8-2-7-3-6-4-8[8:5],1h[16:1],8h[16:1],1h[16:1],,,,,,,{4}8w4[8:1],
,7/1,5b<8[8:1],{32}1,2,3,4,1,2,3,4,
{4}5/1b<6[8:1],{32}5,4,3,2,5,4,3,2,{4}1/5b<8[8:1],{32}1,2,3,4,1,2,3,4,
{4}5/1b,{16}8b,8b,8b,8b,{8}2>5[8:1],{16}1,1,{8}8,7>2[8:1],
{16}6,6,{8}5,4>1[8:1],{16}5,5,{8}6,7<4[8:1],{16}8,8,{8}1,
{4}2-6[8:1],2/6,{16}3,5,3,5,2,6,2,6,
1,7,1,7,8,8,8,8,{32}1,2,{16}3,8,8,8,8,8,8,
{32}7,6,{16}5,8,8,8,8,{8}8,{16}6,5,{8}4/7,{16}3,4,{8}5/2,
{16}6,5,{8}8/4,{16}3,4,{8}5/1,{16}6,7b/5b,,3,{8}2b/4b-8b[8:1],1,
{4}4b/7bh[4:1],{32}1b,2/6,3/5,4,,,,,8,7,6,5,{8}3b,{32}8,7,6,5,{8}2b,
{32}8,7,6,5,4,3,2,1,{4}8/4,{32}1,2,3,4,{8}6b,{32}1,2,3,4,{8}7b,
{32}1,2,3,4,5,6,7,8,{4}1/5,{16}3,4,3,2,{8}3,4/2,
{16}6,5,6,7,{8}6,5/7,1-3[8:1],1-7[8:1],1-4[8:1],1-6[8:1],
1-5[8:1],1,{4}1,{24}1/8h,7,6,5,4,3,2/8,3,4,5,6,7,
8/1,7,6,5,4,3,2/8,3,4,5,6,7,8/1h,2,3,4,5,6,7/1,6,5,4,3,2,
1/8,2,3,4,5,6,7/1,6,5,4,3,2,1/8h,7,6,5,4,3,2/7,3,4,5,6,7,
8/1h,2,3,4,5,6,7/1-5b[8:1],6,5,4,3,2,{4}1b>4b[8:1]*<6b[8:1],1bw5b[8:1],
1b,Cf,{24}3,2,4,5,2,1,5,6,2,1,6,7,
2,3,6,5,,,{4}8,{24}6,7,5,4,7,8,4,3,7,8,3,2,
7,6,3,4,,,{4}1,8v5[8:1]/1v4[8:1],1-3[8:1]/8-6[8:1],
1v4[8:1]/8v5[8:1],1/8,{16}2,4,2,4,3,3,3,3,
{32}8,7,6,5,,,,,1/6,2,3,4,{96},,,,,,,,,,,,{24}5b/1,2,3,4,5,6,7,8,1,2/6b,3,4,
5,6,7,8,1,2,3/6b,5,4,3,2,1,8/4b,7,6,5,4,3,2,1,8,7/3b,6,5,
4,3,2,1,8,7,6/3b,4,5,6,7,8,1/5b,2,3,4,5,6,7,8,1,2/6b,3,4,
5,6,7,8,1,2,3/6b,5,4,3,2,1,8/4b,7,6,5,4,3,2,1,8,7/3b,6,5,
4,3,2,1,8,7,6/3b,4,5,6,,,{8}7-4[8:1],7,2-5[8:1],2,
8<5[8:1],8,{24}4,3,2,1,,,{8}2-5[8:1],2,7-4[8:1],7,
1>4[8:1],1,{24}5,6,7,8,{48},,,,{16}5bh[8:1]/6bh[8:1],,,4b/2bh[16:1],,5,3,4,
3,6b,4,5,4,8b,5,6,{8}5,8-4[8:1],{4}7/4-1-5-7[8:3],
{8},,,8w4[8:1],,,,,{2}B7/E7/B6/B2/E3/B3/Ch[4:1],
{8}4/8,5/7,{16}4,6,{8}1h[8:1],
{16}5,3,{8}8h[8:1],2,7,{16}3,3,5,5,4,4,6,6,
2,2,7,7,{24}1,8,1,8,1,8,{2}7p6[4:5]/2q3[4:5],
{4},,,,,5/4,
{8}3,3,{32}3,4,5,6,,,{16}6,
{32}7,6,{16}5,{32}2,3,{16}4,{8}6,8/1,{16}3,4,2,6,5,7,3,4,
2,6,5,7,3,4,1,6,5,8,3,4,1,6,5,8,
3,5,1,6,4,8,3,5,4,4,{24}5,3,{48},,{16}5,5,4,6,
3,3,4,2,6,6,5,7,{24}4,5,4,5,4,5,3,6,3,6,3,6,
2,7,2,7,2,7,1,8,1,8,1,8,2,7,3,6,4,5,{32}4,3,2,1,8,7,6,5-8[32:5],
4-1[8:1],3,2,1,8,7,6,5,{4}4b,{32}5/7h,8,1,2,3,4,5/7h,8,1,2,3,4,5/8h,7,6,5,
4,3,2/8h,7,6,5,4,3,2,1,2h,8/3,7/4,5,6,7,8,1/6,2/5,3,4,5,6,7/4,8/3,1,2,3,4,5/1,6/2,7,
8,1,2,3,2,3,2,3,4/2,5/3,6/4,5/7,6b,7/5,8/6,7/1,{2}2h[2:1]/8h[2:1],
E
