&title=PHOTON BLAXT
&artist=seatrus
&first=0
&des=Esc
&lv_5=14+
&inote_5=(165)
{1},
{4},,,,
{8}3h[8:3]/5,,,4h[8:3],,,5,5,6h[8:3],,,5h[8:3],,,4,4,
2V48[8:3],,,5h[8:3],,,,,7V58-4[8:4],,,3h[8:3],,,,,
{8}3h[8:1]/5h[8:2],,3h[8:1],6h[8:2],3h[8:1],,3h[8:1]/4h[8:2],,
{8}2h[8:1],5h[8:2],2h[8:1],,2h[8:1]/4h[8:1],,2h[8:1]/5h[8:1],,
{8}1h[8:1]/4h[8:2],,1h[8:1],6h[8:2],1h[8:1],,1h[8:1]/7h[8:2],,
{8}1h[8:1],5h[8:2],1h[8:1],,3h[8:1]/1h[8:1],,
1>4[8:1]/5<8[8:1],,15,,
{16}26,,3,4,,4,3,,2h[8:2]/5,,6,,
{16}7,,8,,47,,6,5,,5,6,,7h[8:2]/4,,3,,
{16}1,1,6,,52,,3-1[8:1],4,,4,3,,5,,7,,
{16}6,6,5,,47,,6V47[8:2],5,,5,6,,1h[8:1],,,,
3,5,4,5,2,4,3,4,2-6[16:2],5,4,5,2,,,,
7,4,5,4,7,5,6,5,8-5[16:2],5,6,5,8,,,,
3qq3[16:3],4,2,4,3,,,,
{32}A6,E7,E8,A8,A4,E4,E3,A2,
{16}1x-5b[8:1],,,,5,,6,,74,,3,,25,,6,,3-8b[8:1]/7-4b[8:1],,,,
{16}3b/7b,,,,3,3,4h[8:1],,2,4,3h[8:1],,5,4,,3,4,4,3h[8:1],,4,2h[8:1],,4v3-5[16:3],3,5,4,,,,,,
{16}6,6,5h[8:1],,7,4h[8:1],,6,5,7,5h[8:1],,6,6h[8:1],,5,5,6,4h[8:1],,6-1[8:1],5,,5,
6b-4[8:1],,
{16}2,,6b,,1h[8:1],,
{32}D8f,E8,C,B4/B3/E4,
{16},,
{16}3x,3x,4h[8:1],,2,4,3h[8:1],,5,4,,3,4,4,3h[8:1],,4,2h[8:1],,
4,3h[8:1]/5h[8:1],,,2h[8:1]/6h[8:1],,,17,,
2-5[8:1]/6-1b[8:1],,2h[8:1]/6h[8:1],,,,,,
7-4[8:1]/3-8b[8:1],,7h[8:1]/3h[8:1],,,,,,
{8}4V25b[16:4],4,5V38[16:4],5,7-3b[8:1],6,7b,,
{32}D2f,E2,C,B5/B6/E6,,,,,
{16}7,7h[8:1],,5,6,4,5,3,3,4,2,5,1h[8:1],,
{32}7bx,6,5,4,
{16}2h[8:1],,
{32}8bx,7,6,5,
{16}3h[8:1],,
{32}1bx,8,7,6,
{16}4,,3,,
{32}D8f,E8,C,B4/B3/E4,,,,,
{16}2,2h[8:1],,4,3,5,4,6,6,5,7,4,
2b,3,4,5/8b,7,6,1b/5,2,3,7b/4,6,5,4-7[8:1]/1-5[8:1],,2,,1<6[8:1]/4b,,,,4-1[8:1]/1b,,,,
4b/7-3[8:1],,,,4/7b,,2,,1b/5,1b/5,,4b/7,4b/7h[8:1],,
{32}8b,1,2,3,
{16}4bxw8[8:1],,2b/6,,4,,,,
4,,5/3h[8:1],,5h[8:1],,,3,3,5,5h[8:1],,4,4h[8:1],,6,6,,4,,5,,5,,3,,3,,
{16}1-4[8:1]/4-7[8:1],,,,1b/4qq8[8:5],,,,6h[16:1],,6h[16:1],,7-3[8:1],,,,7,,,,
1>4[8:1],,1,,6pp2[8:4],,6,,3h[16:1],,3h[16:1],,3-5[8:1],,,,
3,,1h[8:1],,5h[16:1],,3h[16:1]/7h[16:1],,1,,1h[8:1],,5h[16:1],,3h[16:1]/7h[16:1],,
5,,5h[8:1],,1h[16:1],,3h[16:1]/7h[16:1],,1,,1h[8:1],,5-2[8:1]*-8[8:1],,,,
{16}5bpp1[8:5],,,,3h[16:1],,3h[16:1],,2-6[8:1],,,,2,,,,
8<5[8:1],,8,,3qq7[8:4],,3,,6h[16:1],,6h[16:1],,6-4[8:1],,,,
6,,1h[8:1],,4,3,6,5,
{24}8b,7,6,1b,2,3,
{32}8b,7,6,5,1b,2,3,4,
{16}8>7[8:4],,,,,,,,1-5b[8:1],,,,1,,,,5xqq6[8:12]/1xqq2[8:12],,,
{16},,,,,,,,,,,,,,,,,,,,,,,,,,,,,
3,,3,4,,4,,3h[8:1],,6,4,,4,,5,,4pp2[8:5],,,,,,,,,,,,,,,,
5h[8:2]/7h[8:2],,,,,,4h[8:2]/6h[8:2],,,,,,35,,,,
4h[8:2]/2h[8:2],,,,,,5h[8:2]/3h[8:2],,,,,,64,,,,
3,,3,,4,,4,,5,,5,,6,,6,,
{24}1,2,3,7,6,5,2,3,4,8,7,6,1,2,3,7,6,5,1-6[8:1],,,,,,1b/5pp4>5b[8:12],,,
{16},,,,,,,,,,,,,,,,,,,,,,,,,,,,,,
2,4,3,5,4,4,7,5,6,4,5,5,2,4,3,5,
2,4,3,5,4,4,7,5,6,4,5,5,1b,,,,
2,4,3,4,1,5,3,5,1,6,3,6,8b,,,,
7,5,6,5,8,4,6,4,8,3,6,3,1b,,,,
{16}3,4,1,5,3h[8:2],,,,
{24}5b,6,7,2,3,4,
{16}8h[8:2],,,,
{16}2h[8:1],,1,3h[8:1],,4,2h[8:1],,5,1h[8:1],,6,8-4[8:1],1,2,3,
4/8b,,2,2,4,3,7h[8:1],,8,8,
{24}6,5,6,
{16}3-8[8:1],4,2,4,3b,,7,,
{24}7,6,5,
{16}1/4h[8:1],,
2,3,48,7,6/1-5[8:1],2,37,6,1b/5
,,7,7h[8:1],,5,6,3,4,2,,15,1h[8:1]/5,,
4,3,6,5,8,2h[8:1],,4,3/4h[8:1],,
8b,1,26,5,4/1-5[8:1],2,37,6,5b/1,,
7,7,
{24}5,6,5,
{16}7h[8:1],,
{24}8b,1,2,3,4,5,
7b,8,1,2,3,4,
{16}2b,6,5,6,
8b,4,3,4,
1h[8:1]/5h[8:1],,,4h[8:1]/6h[8:1],,,28,,
28,,3-8[8:1],4,2,4,3b,,7,,6-1[8:1],5,7,5,6b,,
2hb[8:1],,,1hb[8:1]/3h[8:1],,,4hb[8:1]/8h[8:1],,,5/7b-4[8:1],,,
{24}3b-5<8b[8:2],2,1,
{16}8,,2-6[8:1],,,,2b,,,,12,,
{24}3,4,3,
{16}6-1[8:1],5,7,5,6,,4,,
{24}2,3,4,
{16}56,,1b/7,2,3,8b,1,2,
{24}3/7bx,84,15,
{16}6-1[8:1]/2-5[8:1],,,,2b/6b,,,,3,4,,1h[16:1]/7h[16:1],,6,4,8,
2b,4,3,4,1b,6,5,6,3x/7h[8:2],,,,
{24}5b,6b,5b,6b,5b,6b,
{16}4b-8[8:1],,3b,,4/7b<4b[8:1],,,,1b/7,,,3b,2h[8:1]/4b,,6b,5b,7b-4[8:1]/4,,38,,7b,,
{24}3b,2b,1b,
{16}4-8[16:1]/8b,,,4b,,,
{24}1b/7,2/6b,3b/5,
{16}4pp7[8:4]*qq1[8:4],,,,,,,,,,,,,,,,
{24}2b/8h[8:1],3,4,
{16},
{24}7b/2h[8:1],6,5,
{16},
{32}1b/7h[8:1],2,3,4,
{16},
{32}8b/1h[8:1],7,6,5,
{16},
{32}2b/8,3b,4b,5b,6b,7b,8b,1b,
{16}2b-5[8:1]/6-1[8:1],,,,26,,,,
3b,4,2,8,
5b,6,4b,5,3b,4,2,5,1b,8,
5,6,3b,4,1,7,
5b,6,4b,5,3b,3,4,,1h[8:1]/6b,,4,4,3b,,82,,4h[8:1]/6b,,
{24}5,6,7,
{16}8b-4b[8:1]/1,,2-6[8:1]/7,,8b,,2,,5x-2[8:1],5x-8[16:1],5x,5x,,,,,
3b-5[8:1],,2,,3b>8b[8:1]/7,,7-3-6-4[8:2],6,5/3,,7b,,,,,,
1h[8:1]/6b,,4,2,5b,4,7,5,6<1b[8:1],,
{24}2b,3,4,
{16}5b/6,,,,
3-5[8:1],4,2,4,3b,,,,
{24}7b-3-6-4[8:2],6,5,1,2,3,7b,,,,,,
{16}3h[8:1],,4,2h[8:1],,1,3h[8:1],,8,4h[8:1],,7,5s1[8:1]*z1[8:1],,,,,,,,,
