&title=Even if we never see each other again.
&artist=kuro
&first=-0.18
&des=JAZZANA
&lv_5=14
&inote_1=
&inote_5=(160)
{8}
,,,,,,,Ch[16:1],
{8}3,3<2[8:7],,,6hx[4:1],,,,5,,,,
{16}35,,,46,,,57,,6-3>2-7[8:6],,,,,,,,3x,,4x,,,,,,5>3[4:1],,,,
{16}7hx[2:1],,,,,,,,,,8,,6>1[4:3],,,,,,7,,6,,,,,,,,4-6-8-2[4:3],,,,,,3,,4,,,,
{16},,3<5[4:1],,3,,,,,,7-1[4:1],,7,,,,,,
{16}3,,8,,2,7,,,2V84[4:1],,7-5[8:1],,,,,,,,
{16}4x,3x,2x,1x,5x,6x,7x,8x,1x/2x,,3<5[8:1],1,2,8,3,,7-3[8:1],,,,8,,,,1-5[8:1],,,,2,,,,
{16}5x,6x,7x,8x,4x,3x,2x,1x,8x/7x,,6>4[8:1],1,,,6,,2-7[8:1],,,,7,,,,6-3[8:1],,,3,,,2,,
{16}1-4-8-3[8:10],,,,,,8,,7,,7,,6,,6,,
{24}5,,,,5,,,,5,,,,
{16},,1x,2x,3x,4x,5x,,
{32}7b-3V15b[4:6],6,5,,,,,,
{4},,,,,,,
{8}3h[8:1]/4,5,6-4[8:1]/3,,2-6[8:1],,2-8[8:1]/7-3-5[4:1],,,,,
{16}1,2,3/5,,,46,,,5/7-5[8:1],,5V37[4:1],,7,,,,2,,1,,,,8-4[8:1]/7,,8,,7<5[8:1],,,,,,8,1,2,,,34,,,24,,1-5[8:1]/5,,2,,15,,,,7h[16:3],,,5h[16:3],,,6,,7-4[8:1]/4,,6,,74,,,,2-6[8:1]/6,,3,,26,,,,7<3[8:3],,,,,,3,,2,,,,,,2,8,
{16}1b>4[16:2],,,4-8[16:2],,,5,,7b<4[8:1],,,4-8[8:1],,,3,,
{16}2,,2,,
{32}2/6xh,B6,,,,,,,
{16}3,,3,,
{32}3/7xh,B7,,,,,,,
{16}2,,2,,
{32}2/8xh,B8,,,,,,,
{16}7,,7,,
{32}7/1xh,B1,,,,,,,
{16}26,,26,,
{32}2xh/6xh,B2/B6,,,,,,,
{16}37,,37,,
{32}3xh/7xh,B3/B7,,,,,,,
{16}2-5[8:1]/6-1[8:1],,,,2/6,,,,8-4[8:1]/4-8[8:1],,,,84,,,,
{16}25,,6,1,7,,2,8,1-5[8:1],,2,,13,,,,26,,3,7,4,,6,4,5-2[8:1],,6,,57,,,,
{16}81,,8,,1,7,2-6[8:1],6,35,,,,,,8,2,7<4[8:1],,,8,,,1,,1,2,3,41,2,3,4/1b-5V37[8:5],,
{16},,,,,,,,7V52[4:1],,,,,,,,6<1[4:1],,,,1q6[4:1],,,,6<1[4:1],,,,1q6[4:1],,,,4V27-5[2:1],,,,,,,,5-1-3[4:1],,,,,,,,
{32}A7,,A6,,A5,,,,A2,,A3,,A4,,,,A8,,B7,,B5,,,,A1,,B2,,B4,,,,
{16}6h[1:1],,,,,,5,,4,,4,,3,,3,,1p3[2:1],,,,,,,,3p5[2:1],,,,,,,,5p7[2:1],,,,,,,,7p1[2:1],,,,8<4[4:1],,,,8,,,,,,,,
{12}24,3,4,75,6,5,
{16}3,4,3,4,2,5,2,5,1x,2x,3x,4x,1x,2x,3x,4x,1>4[4:1],,,,4-8[4:1],,,,8<5[4:1],,,,5,,,,8x,7x,6x,5x,8x,7x,6x,5x,6,4,6,4,7,3,7,3,8-4[4:1],,,,4<7[4:1],,,,7-3[4:1],,,,3,,,,2h[1:1],,,,,,,,4h,,,,,,,,5h,,,,,,,,6h/3h,,,,,,,,7h[2:1]/8>5[2:1],,,,,,,,,,,,,,,,7hb[2:1]/3b,,,,,,,,3h[4:1],,,,,,,,
{32}D3,A3,D4,A4,D5,A5,D6,A6,
{32}A3,D4,A4,D5,A5,D6,A6,D7,
{16}1b,,1,,1V35[8:1],,1,,1b/7b,,7,,7V53[8:1],,7,,8b-4[8:1]/7b,,8,,8b,,,,1b/5b,,24,53,4/6V48[4:1],,,,63,,2,,1>4[8:1],,,,1<6[8:1]/7,,,,13,,,,1-5[8:1],,28,,
{32}1,B1,C,B5,,,,,
{32}A8,D8,A7,D7,A6,D6,A5,D5,
{32}A8,D1,A1,D2,A2,D3,A3,D4,
{16}8b,,8,,8V64[8:1],,8,,2b/8b,,2,,2V46[8:1],,2,,2b/7b-3[8:1],,7,,7b,,,,8b/2b,,
{32}2,3,4,5,6,7,8,1,27,,,,
{16}8-4[8:1]/1,,8/1-5[8:1],,81,,,,
{24}7,,78,,17,,72,,73,,,,
{16}7V51[4:1],,4-8[8:1],,7,,
{32}Cf,,,,
{32},,,,,,,,2x/7x,,2x/7x,,2x/7x,,,,
{16}2b-8[8:1],,7-4[8:1],,2,,7,,
{24}2b,,2,,2,,24,,35,,46,,3b/5b,,,Cf,,,4x>7[8:1],,,,,,
{32}E4,E3,E2,E1,E8,,,,6,,,,,,,,
{96}8x,,,7x,,,,,1x,,,2x,,,,,7x,,,6x,,,,,2x,,,3x,,,,,6x,,,5x,,,,,3x,,,4x,,,,,
{16}5x<3[4:1],,,,3>5[4:1],,3,,,,
{32}E1,E8,E7,E6,1x,2x,3x,4x,,,,,
{16}56,,,,7/8-4[8:1],,,7,7/8-3[8:1],,6,,78,,,,43,,,,2/1-5[8:1],,,2,2/1-6[8:1],,3,,21,,,,
{8}81,1,12,2,23,3,34,4,
{32}3,2,1,8,7,6,5,4,36,7,8,1,2,3,4,5,
{24}6,,1,,4,,3,,8,,5,,6b,,,,,,
{16},2,3,4,
{24}6h[6:1],,,,4h[6:1],,,,5h[6:1],,,,
3h[6:1],,,,8h[6:1],,,,1h[6:1],,,,7h[6:1],,,,8,,,,1,,,,
{16}2<4[4:3],,,,,,,,6-4[4:1],,,,,,,,
{24}7h[6:1],,,,1,,,,28,,,,3h[6:1],,,,5,,,,46,,,,
{16}3>1[8:1],,,,,8,7,6,
{24}5h[6:1],,,,8,,,,76,,,,18,,,,2,,,,2,,,,18,,,,7,,,,7,,,,1pp4[2:1]/8qq5[2:1],,,,,,,,,,,,,,,,,,,,,,,,
{16}7-4[8:1],,,4,,,3-8[8:1],,8,,,,,,,,
{16}3b>5b[20#32:1],,,,,,,,8h,,,,,,,,7h,,,,,,,,6h,,,,
4,5,4,6,3b,,,,,,7,3,
{24}7v2[6:1],,,,2<4[6:2],,,,3,,,,
{16}4,3,2,1,8,7,6,5,
{24}6x,4x,6x,3,7,3,8-4[8:1],2,8,,,,
{16}2b>5[8:1]/8b,,,,,,,,
{24}2/8-4[8:1],,,,17,,86,,5,,,,
{24}5-2[8:1]/4,,,,4h[24:5],,
{32}E5,B4,B3,E3f,,,,,
{24}1-6[8:1]/8,,,,8h[24:5],,
{32}E1,B8,B7,E7f,,,,,
{16}74,,6,3,5,2,4,,
{24}2>5[8:1]/1,,,,2h[24:5]/1,,,,,,,,7<4[8:1]/8,,,,7h[24:5]/8,,,,,,,,8z4[8:1]/1-4[8:1],,,,81,,,,,,,,
{16}6,3,7,2,8,,1-6[8:1],,6<1[8:1],,1>4[8:1],,,,,,
{24}5h,,5h,,5h,,5h,,5h,,,,
{16}46,3,2,1,6,7,8,1,
{32}4x/8x,7x,6x,5x,4x,3x,2x,1x,8x,7x,6x,5x,,,,,
{24}3v6[6:1],,,,6>8[6:2],,,,7,,,,
{16}8,7,6,5,4,3,2,1,
{24}2x,8x,2x,7,3,7,4-8-4[8:2],6,4,,,,
{2},
{24}1b/3b,,3b/8b,,3b/7b,,6b/4b,,3b/6b,,2b/6b,,1/Cf,,,,7/Cf,,,,3/Cf,,,,5/Cf,,,,,,,,,,,,
{24}81,,2,,2,,37,,,,64,,,,24,,,,6/Cf,,,,,,
{24}28,,7,,7,,36,,,,57,,,,53,,,,57,,6,,6,,
{24}78,,1,,2,,43,,5,,6,,71,,2,,2,,35,,6,,6,,
{24}5h[2:1]/3x,,3x,,2x,,2x,,1x,,1x,,8x,7,6,5,4,3,2,1,
{48}6x,5,4,3,2,1,8,7,
{16}6,,,,,,,,B3,,,,,,,,B6,,,,,,,,
{16}75,,,64,,,53,,2>4[4:1],,,,,,,,8-6[4:1],,8,,,,,,4-1[4:1],,,,,,7,,6-3[4:1],,,,,,
{16}2,,1-7[4:1],,,,,,6,,5-3[4:1],,,,,,,,8-3[4:1],,,,,,5,,6-1[4:1],,,,,,2,,2h[4:1],,,,,,,,
{24},,6,,5,,4,,2,,3,,4/E6,B6,B7,
