&title=リメンバーリメンバー
&artist=rino & m@sumi from plsti pnguin
&first=0.5
&des=Kondou
&lv_5=13+
&inote_5=(60.6667)
{12}4,4,7,3,3,6,2,2,5,1,1,4,2,3,5,3,4,7,4,5,1,C,,,
4h[164:42],,,,,,{24}B3,,,7,,,5h[12:1],,,,,,
5h[12:1],,4h[24:1],,3h[24:1],,4h[12:1],,3h[24:1],,2h[24:1],,E1,,,6h[24:3],,,5h[24:1],,7h[24:1],,4h[24:1],,3,,C,,7,,2,,C,,6,,1,,C,,,5h[24:1],,,3h[24:1]`B2,,1h[24:1],,B5,,6h[24:1],,7h[24:1],,8,,B4,5,3,,8h[24:5],,E1,,,2,{64}A7,A6,A5,4hx[64:13],,,,,,,,,,,,,{12}A1f,,1,
{24}2h[12:1],,1,,8,,3h[12:1],,2,,1,,4,4h[24:5],,3,,7,7,,3,,6,,8h[12:1],,2,,1,,7h[12:1],,5,,6,,2,2h[24:5],,3,,8,8,,A3,A4,A5,A6,8x,,6h[12:1],5,4,7,7h[12:1],,A1,,4h[12:1],,B6,2h[12:1],,1,,4,4,,A6,A7,8,1,2h[12:2],,E5,E6,E7,1,1h[12:1],,E8,E1,2,3,4,,E8,6,,
{147}E3,,,,,{192},,4,,,,,,,,,,,,,,,{24}Ch[12:2]f,,,,
(60.6666)1x-5^3[12:3],,,,3,,3-7[12:2],,,,1,,1,,2,,3,,4^1[12:2],,6,5,7,,1p4[12:2],,1,,8,,4>7[12:2],,4,,5,,7>4[12:2],,5h[24:2],,,4,4,B5,B6,B7,B8,B1,2x^5p1[12:3],,E6,E7,E8,E1,2,,6-2[12:1],,B7,,8-6v4[12:2],,6,,1,,8,,1,1,8,,5,,{96}A6,E6,A5,E5,A4,E4,A3,E3,A2,E2,,,C,,,,A3,E4,B4,E5,A5,,,,A7,E7,B6,E6,A5,,,,{24},C,{96}A4`E5,E4,E3,E6,A6,A2,A7,A1,{24}A8,E1,E2,E3,{48}4x,,,6,5,,{24}8x,1,2,
6x>2pp4[12:3],,1,1,2p6[12:1],,6,,,,,,,,2V86[24:3],1,7h[12:2],,4-8[12:1],,2,,5,,4^6[12:1],,1,,1h[12:1],,4q8[12:1],,2,,2h[12:1],,4qq2>6[12:3],,3,3,3h[12:1],,4,8,8,8,8,1,2x-5-8[12:2],,1-4-7[12:2],8,7h[12:1],,2,,1,,,,2-6^4[12:2],,8^6-2[12:2],7,6h[12:1],,2,,8,,,,1x-5-1[12:2],,7,7,3-7-3[12:2],3,1,,,,3,,5x^7-1^3[12:2],,6h[24:1],,6,1,5,,{48}3,,3,4,5h[24:1],,,,
{6}8hx[12:6],,,{24}B6,,,4h[24:3],,,,,B4,,,,7,B5,B3,6,E5,E3,5,,,,,,3h[24:3],,,2,,B7,Ch[24:6],,,,,,,,4,3h[24:3],1,,8,,E7,,5,,4,3h[12:1],,1,,7,7`B6,B5,B4,B3,1,8,7x,,5h[12:1],,3,2,1x/8,,3h[12:1],,7,6,4bx/5,,1,8b/7,6,5h[24:1],,4,2,3,7b/8,2,
{64}4/3b,5x,6x,7x,8x,1x,2x,3x,4bx/1,2x,3x,4x,5x,6x,7x,8x,{96}1bx/5,4x,3x,2x,1x,8x,7x,6x,5x,4x,3x,2x,1x,8x,7x,6x,{24}5b^8[182#8:1]/Cf,,
(182){16}5/4,,2-6[8:1],,1,,2^4[8:1]/8,,,,5,,5,,6/8,,6/8,,7,,8-4[8:1]/2^4[8:1],,,,2-6[8:1]b/8^6[8:1]b,,,,8b/2b,,,,1-5[8:1],,,,1/5^2[8:1]b*^8[8:1]b,,,,5bx,,,,1,,4/8,,3,,4/2>8[8:2],,,,8-2-5[8:2]/2,,,,5x-8[8:1],,5x,,1x-5[8:1]*-5[8:1],,1x,,1b`B1f,,3^1[8:1]*v8[8:1],,,,3^5[8:1]b*v6[8:1]b,,,,3b,,,,8-4[8:1],,,,8/4pp6[8:1]b*qq2[8:1]b,,,,4bx,,,,3/5,,5,,2/1,,2<1-7<6-4>2[8:3]b,,,,2h[8:2],,,,,,8,,7/1,,7/1,,1,,8/2,,7/3,,5b,,{24}3,4,3,{16}4,,2,,1/8,,7,,6-2[8:1]/5,,,,6/4-1[16:3]*-7[8:1],,,,4,,,,5/3,,1/2^5[8:1],,,,6b-1[8:1],,6,,6/1,,3h[8:1],,2,2,,4,4,,{8}7b-3[8:1]`1b^6[8:1],,1`7,,,,,,Ch[8:6],,,,,,B2,B3,B4,E1,E2,E3,A7,A8,A1,4,5,6h,,{32}E6,B5,B4,E4,
