&title=Mystic Light Quest
&artist=-MSR, KOTONOHOUSE, RANASOL, Machico
&first=-0.5
&des=CreeperFromGD
&lv_4=11
&inote_4=(160){8},,,E5,,,,,,,,,,,,{16},,E5,B4,B3,,,,,,,,,,,,E5,,{8},,,,,,,,,,,5hx[8:3]/4,,,,4,,5,,4h[8:2],,,6,,3,,,5h[8:4],,4,,4h[8:4],{16},,5,,,,5,,,,4h[8:3],,,6b,,,6b,,C,,,,5<8[8:5],,,,,,,,3h[8:2],,,,,,1-5-2[8:4],,,,,,,,,,,,,,,,,,5h[8:6],,,,,,1q4[8:8],,,,1,,,,,,,,,,,,,,,,,,,,,,8h[8:5]/1h[8:5],,,,,,,,,,,,8-6>5[8:5]/1-3<4[8:5],,,,,,,,,,,,,,,,,,,,7h[8:4]/2h[8:4],,,,,,,,,,,,,,2,,3,,4,,5,,5,,Cf,,{8},,,6/3,,4/5,,5h[8:2]/3,3,3,,6h[8:1]/3h[8:1],,6h[8:1]/2h[8:1],,6h[8:1]/1h[8:1],,8h[8:1]/1h[8:1],,7/2,,8/3,,1h[8:2]/2,2,2,,6h[8:2]/5,5,5,,4h[8:2]/3,3,3,
,5h[8:2],4,3,3h[8:1],6h[8:2],4,,5h[8:2],3,6h[8:2],2,5h[8:2],1,6h[8:2],4,4,,7h[8:1],6,6h[8:1],7,,7/6,7/6,7/6,,4/3,3/4,4/E3,,,,5qq7[8:7],,2,,,,,1,1,1,,6h[8:1]/4h[8:1],,5h[8:1]/3h[8:1],,,8pp3[8:4],,,,6h[8:4],,,,,B2,B4,E6,E7,E8,,,5h[8:4]/3-8[8:2],,3,,,,8<5[8:2]/4h[8:4],,8,,,,4-7-1[8:2]/3h[8:4],,4,,,,1-6[8:2]/3h[8:4],,1,,,,E7/B6/B7,,B2/B1/E2,,E6/B6/B5/E5/B4/E4/B3,
,,,5h[8:8],,4,,4,,3,,3,,4h[8:8],,5,,5,,6,,7,,8h[8:8],,1,,1,,2,,2,,3h[8:1],,6-8[8:2],,8-4[8:2],,4-2[8:1],,,,3-6[8:2],,6-8[8:2],,8-2[8:1],,,,5h[8:1],,3h[8:1],,8/1,8/1,8/1,,8b/1b,,8<5b[8:2]b/1>4b[8:2]b,,8/1,
,,,6h[8:2]/3h[8:2],,,4/5,4/5,4/5,6/3,,6<1[8:2],,6,,4-8[8:2],,4,,5<8[8:2],,5,,5>2[8:2],,5,,,,5h,4h,6h,3h,C,,7h[8:2]/2h[8:2],,8/1,/8/1,8/1,7/2,7/2,,1-5[8:1]/2-4[8:1],,1/2,,7-5[8:1]/8-4[8:1],,7/8,,5h[8:1],4,6h[8:1],3,7h[8:1],1h[8:1],8,2h[8:1],7,3h[8:1],6,,Cf,,Cf,
,6h[8:2]/2h[8:2],,7/3,7/3,7/3,5/4,/5/4,,6-1[8:1]/2>5[8:1],,6/2,,1-6[8:1]/2-5[8:1],,1/2,,5-7[8:1]/4-2[8:1],,4/5,,8-6[8:1]/1-3[8:1],,1/8,,Ch[8:2],,6,,5/3,5/3,/5/4,,6,,4h[8:2],E6,E7,E8,B8,,8<3[8:2],,8,,2>7[8:2],,2,,1h[8:1],,1h[8:1]/2h[8:1],,8h[8:1]/3h[8:1],,,,B1f/B2f/E2f,,B2f/E3f/B3f,,B5f/E5f/B4f,,
,,8-4[8:1],,2-5[8:1],,6-1[8:1],,2-6[8:1],,7-4[8:1],,1-5[8:1],,,,,4,3,4,5,6,4,,5<8[8:1]/4>1[8:1],,5/4,,8<5[8:1]/1>4[8:1],,1/8,,,,5-8[8:1]/4,,5/4h[8:4],,8,7,6-1[8:1],,3-8[8:1]/6,,6-1[8:1]/3,,6/3,
,,,6h[8:4],5,4,3,3h[8:4],4,5,6,6-1>8[8:4],,,,,,C,,
5,5h[8:1],4,4h[8:1],3,3h[8:1],4,4h[8:1],5h[8:1],3,3h[8:1],4,4h[8:1],5,8h[8:1],,E7/B6/B7,,4,4h[8:1],3,3h[8:1],4,,E2/B2/B1,,E8,E3,B7,B3,B6,,{16},,5h[8:5]/4,4,4,,3,3,3,,4,4,4,,,,,,1h[8:5]/8,8,8,,7,7,7,,8,8,8,,,,,,6,5,6,,3,4,3,,5,4,5,,{8},8qq4[8:4]/1pp5[8:4],,,,,,,,5/4,,2/3,,3h[8:2]/4,4,4,,1h[8:1]/2h[8:1],,8h[8:1]/7h[8:1],,6h[8:1]/1h[8:1],,5h[8:1]/3h[8:1],,4h[8:2],,E7/B6/B7,,5/4,5/4,4/5,,8/1,8/1,8/1,,E8/B7/B8,B2/B3/E3,B6/B5/E6,,5<8[8:1]/1>4[8:1],,5/1,,8/4,8/4,8/4,,5-1[8:1]/2-4[8:1],,2/5,,8<6[8:1]/4>2[8:1],,8/4,,5hx[8:1]/4x,,4/5h[8:2],,E4,B4,B3,,6/5,6/5,6/5,,4/3,4/3,4/3,,B5/B4/E5,,,,B2/E3/B3,,,,B1/B2/E2,,,,,,,,C/B8/B1,,,,E6/B5/B6,,,,E7/B7/B6,,,,B4/E4/B3,,,,E6/B6/B5/E5/B4/E4/B3,,,,E8/B7/B8/B1/B2/E2,,,,E6/B5/B6,,,,E7/B7/B6,,B4/E4/B3,,C,,,,C,,,,C,,,,Cf/B5/B8/B3/B4/B1/B2/B7/B6,,,,5h[8:4],,4,,3v1>2[8:4],,3,,,,6-1[8:2],,2h[8:2]/6,,,,8h[8:1],,2h[8:1],,8,7,7h[8:6],,B2,B3,E3,E2,E4,,,,4-1[8:2],,4h[8:2],,,,1-5[8:1],,1,,,,6h[8:2]/4,,5h[8:2],,4,4h[8:2],,5,5h[8:1],,3/5,,6/4,,3/5,,E6/E4,,,,5h[8:6],,4,,4,,3,,3/5h[8:6],,2,,2,,1,,1/5h[8:6],,1,,2,,2,,5h[8:6]/4h[8:1],,3h[8:1],,3h[8:1],,,,8,,6/3,,1,,5/2,
,5/B3,,4/B6,,4h[8:2]/D6,,D7,{16},,8/1,,,,7/2,,,,8x/1x,8x/1x,8x/1x,,8x/1x,,,,D7f/E7f/B6f/B7f,,,,B1f/E2f/B2f/D2f,,,,D6f/E6f/B5f/B6f,,,,C,,,,6h[8:2]/2h[8:2],,,,,,5/3,,5/3,,5/3,,5/3,,6,5,6,,4,3,4,,5,4,5,,6,4,6,,5,2,5,,5,3,5,,6,4,6,,3,5,3,,5,4,5-7v1[8:4],,,,3,,2,,2h[8:2],,,,,,,,8h[8:5],,,,B2,,B3,,E4,,B4,,1-3[8:1]/8-6[8:1],,,,8-5[8:1]/1-4[8:1],,,,1-3[8:1]/8-6[8:1],,,,8-5[8:1]/1-4[8:1],,,,8/1,,,,5h[8:1],,,,B4,,,,6h[8:1],,,,B4,,,,5h[8:1]/4h[8:1],,,,6h[8:1]/3h[8:1],,,,7h[8:1]/2h[8:1],,,,8h[8:1]/1h[8:1],,,,Cf,,,,5/4,,5/4,,5/4,,4/5,,6/3,,,,8<5[8:1]/4>1[8:1],,,,8/4,,,,1-4[8:1]/5-8[8:1],,,,1/5,,,,8-6[8:1]/4-2[8:1],,,,8/4,,,,5-7[8:1]/4-2[8:1],,,,4/5,,,,8h[8:6],,1,,1,,2,,2,,3,,3,,,,5h[8:2]/3h[8:2],,,,,,1,,1,,1,,1-6[8:1],,,,1-4[8:1],,,,1-5[8:1],,,,1-4[8:1],,,,1,,{8},5h[8:1],4,3h[8:1],6,2h[8:1],7,2h[8:1],,6/E3/B2/E2,,3/E7/B7/B6,,Cf,{16},,,,,,6,5,6,,4,3,4,,5,3,5,,5,4,5,,5/4,,,,7/6,,,,1/8,,,,5/4,,4/5,,4/2,,4,,6h[8:2],,,,4,,,,3,,,
,7x,6x,5x,4x,3x,,,,1x,2x,3x,4x,,,,,5-1[8:1]/3,,,,5/3,,,,5/2,,5/2,,4/5,,,,8<4[8:1],,,,8>4[8:1],,,,8,,,,5h[8:1]/3h[8:1],,,,5x,4x,5x,,4h[8:1]/2h[8:1],,,,4x,3x,4x,,5h[8:6],,,,1,,2,,3,,4,,4,,,,,,,,6<1[8:1]/5>2[8:1],,,,5/6,,,,1/2,,1/2,,8-6v1[8:4]/3,,,,4,,,,3,,,,3,,,,2-7[8:1]/3-6[8:1],,2/3,,2/3,,,,7/6,,6/7,,6/7,,,,7,,,,7x,8x,1x,2x,,,,,4x,5x,6x,7x,,,,5<8[8:2],,,,4,,4,,4,,,,8h,,,,1>4[8:2],,,,7,,7,,7,,,,8/1,,8h[8:1],,2h[8:1],,7h[8:1],,2h[8:1],,8h[8:1],,1h[8:1],,7h[8:1],,,,,,5b,,3b,,4b,,6b,,5b/4b,,,,6/2,,,,4w8[8:8],
