&title=C18H27NO3
&artist=Team Grimoire
&first=0
&des=DgsEOs vs Shengwxnw
&lv_5=14
&des_5=DgsEOs vs Shengwxnw
&inote_5=
(210){4},,,,,,,,{1}1qq2[4:3],
5qq6[4:3],
3qq4[4:3],
7qq8[4:3],
2>8[4:3],
6>8[4:3],
2<4[4:3],
3>5[2:1],
{4}2/6pp1[4:3],2,3,3,
4h[4:1],{8}8,8,{4}5/7,4,
7/3qq8[4:3],7,6,6,
5h[4:1],{8}1,1,{4}4/2,5,
1>4[8:1],1,8<5[8:1],8,
1,{8}3,4,{4}2h[4:1],1,
8<5[8:1],8,1>4[8:1],1,
8,{8}6,5,{4}7h[4:1],8,
{1}1-5-8-4[4:3],
{8}8,3,{4}3h[4:1],{8}6,6,{4}6h[4:1],
{8}4,4,{4}4h[4:1],{8}2,2,{4}2h[4:1],
{8}7,7,{4}5h[4:1],{8}6,6,{4}4h[4:1],
{8}5,5,{4}6,{8}8,1,{4}5h[4:1],
{8}1,8,4,7,5,6h[8:1],{4}2,
{8}3,5,4,4h[8:1],7,5,{4}6h[4:1],
{8}2,5,3,4,1,8,{4}2h[4:1],
{8}7,7,6,8h[8:1],3,3,{4}4h[4:1],
{8}6,5,4,3,6,6,5,7h[8:1],
3,4,5,6h[8:1],2,2,1,3,
6,5,4,3,7h[8:1],5,4,2h[8:1],
8,8h[8:1],3,3h[8:1],6,6h[8:1],1,1h[8:1],
8b,5,7,5,6,5,6,5,
8b,5,6,5,6,5,6,5,
8b,5,6,5,1b,5,6,5h[8:1],
{4}8b-4[8:1],8b/2b-7[8:1]*-5[8:1],2b,4/8,
{8}1/5-8[8:1],1,1,1,1/7-4[8:1],1,1,1,
2/5<8[8:1],2,2,2,2/1-5[8:1],2,2,2,
8/4-1[8:1],8,8,8,8/2-5[8:1],8,8,8,
7/4>1[8:1],7,7,7,7/8-4[8:1],7,7,7,
,6,6,6,5/7-2[8:1],5,5,5,
6/4>1[8:1],6,6,6,6/8-4[8:1],6,6,6,
3/5-8[8:1],3,3,3,3/1-6[8:1],3,3,3,
2/4<7[8:1],2,{4}2,8b-4[8:1]*-5[8:1],8b,
{8}7/3,6,5/2,3,8/4,8,8,8,
{16}7,5,7,5,6,4,6,4,{8}5,3h[8:1],8,8,
{16}2,4,{8}3h[8:1],7,7,2,8/1,{4}1/8,
{8}8,8,1,1,{16}7,5,6,5,{4}7h[4:1],
{16}4,6,{8}5h[8:1],8,8,{16}4,6,{8}5h[8:1],8,8,
{16}4,6,{8}5h[8:1],8,8,{4}7/1,6/2,
{8}4-8[8:1],4,5-1[8:1],5,3-7[8:1],3,8,8,
{16}1,2,{8}3h[8:1],{16}8,7,{8}6,{16}2/4,1,8,7,6,5,{8}4h[8:1],
{32}1b,8,,,,,,,1b,8,,,,,,,{8}2h[8:1],4h[8:1],3h[8:1],6h[8:1],
4h[8:1],{16}7,5,{8}6h[8:1],5h[8:1],4h[8:1],3h[8:1],{32},,,,,,,,1b,
8,,,,,,,1b,8,,,,,,,{8}6h[8:1],5,3h[8:1],4,
8b,8b,8b,8b,6h[8:1],5h[8:1],{4}4h[4:1],
{32}1b,8,,,,,,,1b,8,,,,,,,{8}2>5[8:1],5,6,7,
8,{16}5,4,{8}3h[4:1],7,7h[8:1],6,5,4,
6bh[4:1],3,,4,2h[4:1],5,,6,
1,8,3,6,{32}E1,E2,E3,E4,E5,E6,E7,E8,{4}Cf,
{32}1b,2,{16}3h[16:3],{32},,,,1b,8,{16}7h[16:3],,,{8}4,5,1,8,
2/6,{16}3,5,{8}4,2,7h[8:1],5h[8:1],6h[8:1],4,
{32}1b,8,{16}7h[16:3],{32},,,,1b,2,{16}3h[16:3],,,{8}6,5,4/7,8,
2b,2b,6b,6b,1/5,1/5,{4}1/5,
{32}1b,2,{16}3h[16:3],{32},,,,1b,8,{16}7h[16:3],,,{8}4,5,1,8,
2/6,{16}3,5,{8}4,2,7/5,5/7,5/7,7/5,
1b,1,8b,8,2-5[8:1],2,6-1[8:1],6,
3-8[8:1],3,7-4[8:1],7,1-5[8:1],1,8,8,
{1}1bh[2:1]/7>1v3<5b[2:1],
7bh[2:1]/3-5-1<7b[2:1],
3bh[2:1]/8-4-8b[2:1],
Cf,
{2}2b/B6f/E6/A6,3b/B7f/E8/D8/A7,
6b/B4f/E4/B3/A4/D4,8b/B1f/E2/A2/E3,
{4}8b-6[8:1]/2b-6[8:1],2b/8b-4[8:1],8b/3b-1[8:1],3b,
{8}4b,6,3b,5,2b,4,1b,3,
{16}2bx,2x,2x,2x,2x,2x,2x,2x,2x,2x,2x,2x,2x,2x,2x,2x,
{32}2x,3x,4x,5x,2x,1x,8x,7x,2x,3x,4x,5x,2x,1x,8x,7x,2x,3x,4x,5x,2x,1x,8x,7x,2x,3x,4x,5x,2x,1x,8x,7x,
2bx,3x,4bx,5x,6bx,7x,8bx,1x,2bx,3x,4bx,5x,6bx,7x,8bx,1x,2bx,3x,4bx,5x,6bx,7x,8bx,1x,2bx,3x,4bx,5x,6bx,7x,8bx,1x,
{8}2b,8-2[8:1],3b,8-6[8:1],5b,8-2[8:1],3b,8-6[8:1],
5b,8>3[8:1],3b,8-6[8:1],5b,8-4[8:1],4b,8,
3b,2,1b>4[8:1],5,1b-7[8:1],6,1b>4[8:1],5,
1-7[8:1],6,1,5,5h[8:1],4,4h[8:1],3,
1-7[8:1],6b,1-3[8:1],4b,1-7[8:1],6b,1-3[8:1],4b,
1<6[8:1],6b,1-3[8:1],4b,1-5[8:1],5b,1,6b,
7,8b<5[8:1],4,8b-2[8:1],3,8b<5[8:1],4,8-2[8:1],
3,8,4,4h[8:1],5,5h[8:1],6,1,
5b/3b,{16}6,5,{8}7bh[8:1],{16}3,4,{8}2bh[8:1],{16}7,5,{8}6bh[8:1],{16}2,4,
{8}3bh[8:1],{16}7,5,{8}6bh[8:1],{16}2,4,{8}2bh[8:1],{16}7,5,{8}7bh[8:1],{16}6,5,
{8}4bh[8:1],{16}6,5,{8}4bh[8:1],{16}6,5,{8}4bh[8:1],{16}6,5,{8}4bh[8:1],{16}6,5,
{8}4bh[4:1],8,8,8,3h[2:1],7,6,5,
4bh[8:1],{16}2,2,{8}5bh[8:1],{16}3,3,{8}6bh[8:1],{16}4,4,{8}7bh[8:1],{16}5,5,
{8}8bh[8:1],{16}1,1,{8}7bh[8:1],{16}2,2,{8}6bh[8:1],{16}3,3,{8}5bh[8:1],{16}4,4,
{8}7bh[8:1],{16}4,5,{8}2b,{16}5,4,{8}7b,{16}4,5,{8}2b,{16}6,2,
4b,5,2,6,5,7,5,6,{32}4,3,2,1,5,6,7,8,1,2,3,4,8,7,6,5,
{1}4bv2<6[8:51],
,,,,,4bv2<6b[4:1],
E
