&title=恋は渾沌の隷也
&artist=後ろから這いより隊G
&first=0
&des=Tane
&wholebpm=158
&lv_6=11
&inote_6=
(158)
{1},,
{8}18,,27,,{16}36,36,,45,,,24,,
{8},57,13,68,1w5[8:1]/8,,1b,,
{4}2s6[8:1],2,7s3[8:1],7,{4}4s8[8:1],4,1s5[8:1],1,
{4}6s2[8:1],6,3s7[8:1],3,{4}8s4[8:1],8,5s1[8:1],5,
{4}2s6[8:1]/6,2,7s3[8:1]/3,7,{4}1s5[8:1]/5,1,8s4[8:1]/4,8,
{4}3s7[8:1]/7,3,6s2[8:1]/2,6,{4}4s8[8:1]/8,4,5w1[8:1]/1,5b,
{8}4/3h[8:3],,,5,6h[8:5]/4,,5,7,
{16}8,,1,1,7<3[4:1]/2h[8:5],,8,,7,,,,,,,,
{16},,1,7,8-5[8:1],,6,,8-4[8:1],,,,8,,,,
{16}13,,4,,68,,5,,1w5[8:1]/8,,,,1b,,,,
{8}5/6h[8:3],,,4,3h[8:5]/5,,4,2,
{16}1,,8,8,2>6[4:1]/7h[8:5],,1,,2,,,,,,,,
{16},,8,2,1-4[8:1],,3,,1-5[8:1],,,,1,,,,
{16}87,,5,,21,,4,,8w4[8:1]/1,,,,8b,,,,
{8}4,3,2,1,8,7,6,5,
{4}4s8[8:1]/8,4,1s5[8:1]/5,1,
{8}5,,6,,7,8,1,2,
{4}3s7[8:1]/7,3,2s6[8:1]/6,2,
{8}5,6,7,8,1,2,3,4,
{4}5s1[8:1]/1,5,8s4[8:1]/4,8,
{8}4,3,2,1,8,7,6,5,
{8}48,15,26,37,4v1[8:1]/8-5[8:1],,4b/8b,,
{8}4/2h[8:3],,,6,7h[8:3]/5,,4,3,
{16}2h[8:1]/8,,1,1,2/8<3[4:1],,7h[8:5],,8,,,,,,,,
{16},,6,4,5^7[8:1],,3,,5^2[8:1],,,,5,,,,
{16}18,,6,,18,,3,,5w1[8:1]/4,,,,5b,,,,
{8}5/7h[8:3],,,3,2h[8:3]/4,,5,6,
{16}7h[8:1]/1,,8,8,7/1>6[4:1],,2h[8:5],,1,,,,,,,,
{16},,3,5,4^2[8:1],,6,,4^7[8:1],,,,4,,,,
{16}82,,6,,71,,3,,4w8[8:1]/5,,,,4b,,,,
{8}1,3h[4:1],1,5h[4:1],1,3h[4:1],1,6h[4:1],
{8},1h[4:1],7,8,,23,45,67,
{8}8,6h[4:1],8,3h[4:1],8,5h[4:1],8,2h[1:1],
{8}1,3,4,5,6,7,8,1,
{8}8,6h[4:1],8,4h[4:1],8,6h[4:1],8,3h[2:1],
{8},8,7,6,,74,63,52,
{8}12,56,78,34,18,27,36,4qq5[2:1]/5pp4[2:1],
{8},45,,,,,,,
{8},12,78,12,78,,,78,
{8}12,78,12,78,1-5[8:1]/2-4[8:1],,12,,
{8}6-3[8:1],1^4[8:1],6,1,{16}7^4[8:1],7h[16:7],,,,,,,
{16}3-7[8:1],,6,,3,5h[16:7],,8h[16:5],,,,,,,1,,
{8}34,8,56,2,34,7,56,3>5[2:1]/4p3[2:1],
{8},,,,,,,,
{8}3-6[8:1],8^5[8:1],3,8,{16}2^7[8:1],2h[16:5],,,,,,,
{16}3/7-3[8:1],,45,,7,2,,4-1[8:1]/5p1[8:1],,,,,,,8,,
{8}57,1,24,8,46,1,35,4qq1[2:1]/6pp1[2:1],
{8},,,,,,,,
{8},28,37,46,18,27,36,45,
{8}78,56,34,12,78,34,12,56,
{16},,3,5,4,,6,4,5,,2,4,3,,7,5,
{16}6,,1,3,2,,8,6,7,,17,,26,,35,,
{8}1pp3[8:1]/8qq6[8:1],,18,,{16}45,45,,36,,,27,,
{8},45,18,36,2V48[4:1]/7V51[4:1],,2b/7b,,
{1},,,,,,,,
