&title=SORA-VII シグナスウォール
&artist=翡翠
&first=0
&des=ソラスク
&lv_5=14+
&inote_4=
&inote_5=(90)
{1},
{4},
{48}3h[128:10],,,{64},7,6,5,{48}4,,1,,6,,
{24}3,4,2,{32}15,6,7,8,{16}15,73,15,,6bpp4[8:6]/2h[8:3],,,,,,,,,,,,3,,3,,
{48},,,,,,1,,,,6,5,6,,,,2h[48:6],,,,,,3,,{48}1bpp6[8:3],,,,,,,,,,,,,,,,,,5,,,,6,,,,7,,,,8,,,,,,
{48}3,4,3,,5,,4,,6,,5,,7,,3,,4,,
{48}2,,5b/1b,,,,{48}3b/7b,,,,5,,1,,6,,2,,
{48}7bpp4[2:1]/3h[8:3],,,,,,,,,,,,,,,,,,,,,,,,,,,,2,,,,,,5,,
{48}5<3[4:1],,,,,,,,,,,,,,,,,,4,,,,,,
{24}7,,7,6,,6,
{48}5pp8[2:1],,,,,,,,,,,,1,,,,,,1,,,,,,,,,,,,2,,,,2,3,4,,,,,,,,,,6h[8:1],,,,,,5,,
{48}7b,6,5,,8b,7,6,,1b,8,7,,{24}3,4,2,
{24}6V41[4:1],,,,,2,,,,3v8[12:1],,,,,4,3,,7,{48}7,6,5,,,,2-5[12:1],,,,1,,,,,,4,,2,,,,,,7qq4[4:1],,,,8,,,,,,2,,7,,,,,,,,,,1,,1,,,,6,,{24}2,2,2,3,3,3,4,4,4,{32}6v1[16:1],5,7,8,{48}7,,,{32}2,3,{48}46,,,{32}3,3,{16}8,7,6,5,4,3,
{24}2bV47[4:1]/1b,,,,,,,,,8V63[4:1],,,,,,,,,,,,1V74[16:3],,,{32},,4-8[12:1],,,,,,,,,,1,2,3,,
{24}6pp4[8:3]/5,,,,,,,,,4pp5[4:1],,,{32},,,,,,3,,3,,,,,,,,{32}12,,13,,,,65,,75,,,,4b/8b,,,,
{32}6,5,6,,3,4,3,,7,5,6,,2v5[16:1],4,3,,8,1,8,,2,6,6,,78,,,,{48}3,4,3,4,,,65,,,7,8,7,8,,,21,,,{32}8,1,8,2,4,3,6,5,
{32}7b,,82,,3,4,3,4,2,5,2,5,1,6,1,6,8,7,8,7,1,8,27,,2,4,3,5,4,6,5,7,78,,61,,4,,54,,63,,2,1,2,,8b/7b,,1b/6b,,3p1[16:13],,4b/8b,,2b/6b,,,,7bp5[16:9]/3b,,,,,,
{4},,,
{24}2,4,3,6,5,7,
{32}8b/4b,,,,6qq1[8:2],,2h[8:1],,,,8,,6,,,,7,,,,,,,,4<2[8:2],,,,,,,,4/2qq6[4:1],,,,{64}3,4h[64:15],,,,,,,,,,,,,,,,,,,,,,,{32}3>6[8:2],,4,,5p4[4:1],,,,,,,,,,,,,,,,,,,,25,,3,4,3,,74,,6,5,6,,1,8,2,7,3,6,4,5,3,4,2,5,
{32}1b<4[16:3]/6h[4:1],,,,,,,,1-5[8:1],,,,3-7[8:1],,,,,,,,3>5[16:3],,,,4h[4:1],,,,,,,,{24},,,{24}2,3,4,8,1,2,6,7,8,5bV38[8:3]/1bV74[8:3],,,,,,,,,,,,,,,,,,
{32}25,,3,4,3,,74,,6,5,6,,81,,3,4,2,,56,,7,,{48}81,27,36,
{32}5b/4b,,,,3qq6[8:2],,7h[8:1],,,,4,,3,,,,5,,,,,,,,5>7[8:2],,,,,,,,5/7s3[16:3],,,,{64}6,5h[64:15],,,,,,,,,,,,,,,,,,,,,,,{32}45,,7,5,6,,34,,2,,18,,7,,3,4,2,,56,,7,,81,,2,,6,5,7,,82,,3,,6,,
{32}15,26,37,48,{24}1,5,7,3,5,1,{32}8bqq3[8:3]/4h[4:1],,,,,,,,,,,,4,,,,5,,,,6,,,,7q1[4:1]/3h[8:3],,,,,,,,,,,,,,,,{32}2,3,4,5,62,1,8,7,{32}2h[4:1]/6bqq1[8:3],,,,,,,,,,,,2,,,,3,,,,4,,,,56,,7,5,6,,18,,3,4,2,,{24}15,6,7,8/1-5[16:1],2,3,64,7,8,
{4}4bw8[1:1]*w8[1:1]/1b,,,,,,{32}6,,,6,,,4,,4,5,,,3,,4,3,,,56,,,6,,,{32}2,,,2,,,7,,7,8,,,2,,5,3,,,26,,,4,,,
{32}3h[16:1],,5,4,,,7h[16:1],,1,8,,,21,,2,3,,3,4,,4,7,5,6,{32}2b,8,1,8,3,8,1,8,4,8,1,8,4b,6,5,6,3,6,5,6,2,6,5,6,
{32}8b/7b,1,2,3,4,5,6,7,8,1,2,36,47,8,1,2,3,4,5,6,7,8,1,2,35,6,7,8,1,2,3,4,15,6,7,8,14,5,6,7,8,1,2,3,4,5,6,7,83,2,1,8,7,6,5,4,3,2,1,85,74,3,2,1,8,7,6,5,4,3,2,1,8/6h,5,4,3,2/4h,1,8,7,6/2h,5,4,3,2h[8:1]/8h,,,,6,6,5,7,4,4,5,3,
{32}1b/2b,8,7,6,5,4,3,2,1,8,7,63,52,1,8,7,6,5,4,3,2,1,8,7,64,3,2,1,8,7,6,5,84,3,2,1,85,4,3,2,1,8,7,6,5,4,3,2,16,7,8,1,2,3,4,5,6,7,8,14,25,6,7,8,1,2,3,4,5,6,7,8,1/3h,4,5,6,7/5h,8,1,2,3/7h,4,5,6,7/1h,,,48,,,56,,,42,,,
{24}1b/7b,,,6,6,4,5-1[12:1],,3,4-6[16:1],2,,5,,3,4,,3,7,7,8,6,6,5,8v3[12:1],,65,,75,,4/8,,2,5,1,6,7pp4[4:1]/8,,65,,34,,7,,6,,5,,2v5[12:1],,1,7-1[12:1],,4,2-4[12:1],,,7,,,2,,6,6h[12:1],,2,5b,4,8,3b,7,1,
{24}2b/6b,,,3,3,5,4-1[16:1],,6,5v3[16:1],8,,4,,7,5,,6,2,2,1,3,3,4,1v6[16:1],,34,,24,,5/1,,4,4,3,5,1b-5[16:1],,6-4[16:1],2,7,7,1,,6,,8,,5,3,6,1,7,2,{32}8b/3b,7,6,5,48,1,2,3,{48}48,7,6,5,4,3,2,1,8b,7,6,5,{48}1b,4,1,4,1,4b,1,4,1,4,1,4,
{24}8bv3[12:1],,{48}1,5,2,,{24}6<1[12:1],,78,,5-8[12:1],4,6,,2,,65,,4,,
{24}1-6[12:1]/5,,{48}6,2,7,,{24}3v8[12:1],,21,,4>1[12:1],5,3,,7,,64,,5,,
{24}8/4v7[12:1],,1,6,,3,2>5[12:1]/4,,1,6,8,,7v4[12:1]/2,,6,1-6[12:1],8,3,7b,,2,1b,5,,3,,3,7,,7,1b,6,4,8b,2,5,
{24}3b/7b,,,3,3,5,4p8[12:1],,6,5v3[16:1],7,,4,,6,5,,7,2,8,4,6-1[12:1],2,4,8,,3s7[8:1],6,,2,7,,34,{48},,,,6,5,{24}4b,,1,6-3[12:1],,2,8-4[12:1],,5,6-1[12:1],,,8,,,6,,,2b,2,2,3,3,3,4,4,4,{32}1b,5,8,4,7,3,6,2,{48}1b/5b,26,37,48,15,26,
{16}3,5,7,1,26,,,84,,7,5,3,1b,,,{32}8,4,{16}15,37,{32}6,4,7,5,{24}6-1[16:1],3,8,2,7s3[0.7224##4.1675]*s3[0.7224##4.1675],4<2[24:37],{16}65,,,4b/7b,
