&title=God only knows -Secrets of the Goddess-
&artist=早見沙織 / TV动画《只有神知道的世界 第三季:女神篇》OP
&first=0
&des=攻陷之鬼
&des_5=攻陷之鬼
&lv_5=神
&inote_5=||Prologue:God
||A----------obs----------
(145){1},{16},
{8}Ch[4:3]/7<3>7[4:10],,,,,,,,,,,,C,,,,,,C,,,,,,
{8}Ch[4:3]/2>4<6<8>2b[4:10],,,,,,,,,,,,C,,,,,,C,,,,,,
{8}E2h[4:3]/B2h[4:6]/E3h[4:9]/7qq4[4:4],,,,,,,,,,,,5pp1[4:4],,,,,,,,,,,,
{8}E8h[4:3]/B7h[4:6]/E7h[4:9]/3qq2[4:4],,,,,,,,,,,,3qq4b[4:4],,,,,,,,,,,,
||B
{8}5h[4:1],,4,,,{24},6,,{8}6h[4:1],,5,,,,7h[4:1],,4,,,{24},8,,{8}8h[4:1],,1,,27,,
{8}1h[4:1],,8,,,{24},2,,{8}2h[4:1],,4,,,,3h[4:1],,5,,,{24},4,,{8}4h[4:1],,5,,36,,
{8}5xh[4:1]/7v6[16:4],,,,,{24},,,{8}4xh[4:1]/6V82[16:4],,,,,,3xh[4:1]/1p4[16:4],,,,,{24},,,{8}2xh[4:1]/5v7[8:2],,,,,,
{8}1h[4:1]/8qq6[16:4],,,,,{24},,,{8}8xh[4:1]/2pp3[16:4],,,,,,7xh[4:1]/4q1[4:1],,,,,,6xh[4:1]/2-6[4:1],,,,,,
||C----------Yaegaki----------
{4}7pp6[8:3]/5,4,{8},3,3h[8:2],,{8}4,5,42,15,
{4}2-5[16:3],7-4[16:3],,3>6[8:3],,,
8p5[8:4],5,,1-4[16:3],4,,
7-4[16:3],3-8[16:3],,7>3[4:1],3<7[4:1],,
2qq3[8:3],5,{8},6,6h[8:2],,{8}5,4,57,84,
{4}7-3[16:3],2-6[16:3],,7>5[8:4],,,
1q4[8:4],4,,8-5[16:3],5,,
1>4[16:3],5<8[16:3],,2>4[8:1],6<8[8:1],5w1b[8:1],
(170){8}Cf,,,,,,,3/6qq4[4:1],
{1}6/3pp1[2:1],
{4}7bpp5[2:1],,,4,
{1}7bpp5[2:1]/2bqq4[2:1],
{4}8b-6[8:1],8/1,
{8}4,3,{4}2-4[8:1],2/6-1[8:1],6/5,
{8}4,3,{4}2-5[8:1],2/7-3[8:1],7/1-5[8:1],1/6-1[8:1],
{8}6/2,3,4/8,8/4,7/3,2/6,
{16}1,5,1,5,2,6,2,6,
||E----------9V_Y2-6----------
{8}3-8[8:1],,7-4[8:1],,1,,2-5[8:1],,6-1[8:1],,4,,3,3,24,,
4-2[8:1]/6,,5,,7/5-1[8:1],,6-4[8:1],,3-1[8:1]*-7[8:1],,3-5[8:1],,8,8,{16}7,5,6,,{8}2-5[8:1],,
{8}6-1[8:1],,4,,3-8[8:1],,7-4[8:1],,1,,2,2,13,,
8-6[8:1]/4,,2,,5-1[8:1]/2,,4,,{16}3,1,2,,6,8,7,,2,1,8,7,6,5,4,3,
||F
{8}2-5[8:1]*-6[8:1],,2b,,47,6,5,4/7<4[8:1],,3<6[8:1],,1q5[8:1],,8,8,,
7<4[8:1]*p3[8:1],,7,,25,3,4,2>5[8:1]/5,,6>3[8:1],,8p4[8:1],,1,2h[8:1],,
5-1[8:1]/3-5[8:1],,35,,8,6,4,2-4[8:1]/5-2[8:1],,2/5-1[8:1],,8-5[8:1],,1,2,3,2h[4:1]/4h[8:1],,
,6h[4:1]/5h[8:1],,,3h[4:1]/4h[8:1],,,7h[4:1]/5h[8:1],,,4q8[8:1],3,2,1,
2-6[8:1]*-4[8:1],,2,,7-5[8:1],5,7,2-6[8:1],,2/8-4[8:1],,3-1[8:1],,4,4,,
7-5[8:1]*-3[8:1],,7,,2-4[8:1],4,2,7-3[8:1],,7/1-5[8:1],,6-8[8:1],,5,4,3,
2-6[8:1]*-5[8:1],,2,,7-1[8:1],5,7-4[8:1],4-8[8:1],,3-1[8:1],,3/7-5[8:1],,8,1h[4:1],,
6<1[4:1],,1>4[4:1],,4,,2>6[12:4],,5<8[4:1],,8z4[4:1],,6h[4:1],,,,
||G----------Tako----------
{8}3,3,{4}6/4V26[4:1],7,{8}8,8,
{4}3/1V73[4:1],4,{8}2,2,{4}7/1-6[8:1],
{8}5,5,{4}4-7[8:1],3,{8}2,2,
{4}5/3V51[4:1],6,{8}7,7,{4}8/1,
{8}6,6,{4}3/5V37[4:1],2,{8}1,1,
{4}6/8V26[4:1],5,{8}7,7,{4}2/8-3[8:1],
{8}4,4,{4}5-2[8:1],6,{8}7,7,
{4}4/6V48[4:1],3,{8}2,2,{4}8b/1b,
{8}3,4,5,3/6<1[4:1],,1>4[4:1],,4<7[4:1],
,7>1[16:3],,2,,3,4,3/5,
6,7,8,6/1V35[4:1],,5V71[4:1],,1V35[4:1],
,5-1[8:1],,8,,2bx/7bx,6bx/3bx,4x>5[8:29]/5x<4[8:29],
{1},,,,{48}E7,B6,C,B3,E3,,{8},,,
||I----------CupLid----------
7b/3b,
7b/3b,{4}7bh[4:5]/3bh[4:5],
{8},,,,,,,,,B5f/E5/E6,
,,6b/2b,2b/6b,{4}6bh[4:5]/2bh[4:5],
{8},,,,,,,,,,,,7b/E3,
7b,7bh[4:5],B4,
,,{4}A5,{2},
{8},E5/B4f/E4,,,2b/E7,2b,2bh[4:5],B5,
,,{4}A4,{8}8,8,8,8,
{16}8,3,7,4,6,5,7,4,{4}8pp7[2:1],4,
,4,6/2pp8[2:1],7,
,6,5/1qq2[2:1],4,
,5,3/7qq1[2:1],2,
{8},,2,3,{4}8/4v6>2[2:1],7,
,7,1/5v3<7[2:1],2,
,2,{8}8/4,6-1[8:1],4,2h[8:5],
,,{4}8,{8}7,6/5h[8:3],,,4,
2b/6b,{16},,3,4,{4}2>6[4:1],6,
{8}7,7,{4}4/8-4-6[8:3],4,3,
{8}2,2,{4}3/7<3[4:1],3,2,
{8}2,4,{4}5/1-5-3[8:3],8,{8}7,7,
,6,{4}6/2-6-3-5[4:3],6,8,
7,6,3/7<3[4:1],{8}2,1,
8b,2b/6b,,,3/4,5,6,7,
{4}3/8<5[8:1],{8}2,1,7/8,1,2,3,
{4}4V28[4:1],{8}6,5,,4/3,{4}5/2h[4:1],
{8}1,8,7,6,{4}3/5,{8}5/6,8<5[8:1],
,8>3[8:1],,8,,7,6,5,
{4}4/3,7/5,3/1<6[8:1],{8}5,5-1[8:1],
,2,{4}2>5[8:1],{8}8,7,6,5,
3/4,2,5,1,{4}8qq6[8:1]/2pp4[8:1],8/2,
1>4[8:1]*<6[8:1],1,{8}7/3,6,5/3,4,
7/5,8,1/2,8-5[8:1],,2-6[8:1],,4-7[8:1],
,1h[4:1],,8,6/2,5/3,7/2,6/4,
{16}3,5,4,6,2,5,3,7,{2}1b,
||K----------小white君----------
{8},,,,2bqq5[4:3]/8b,,,,,,,,
{8}6h[8:3],,,7,7h[4:1],,8,8h[2:1],,,1,1,2/8,2/8,3/7,3/7,
{8}2/6-1[8:1],,3,4>1[8:1],,7,5-8[8:1],,1,3-7[8:1],,
{32}A6,D6,A5,D5,
{8}A4,,,1/7,,3/5,3-6[8:1]/5,,8h[4:1],,1>6[4:1],,6p2[5:1],,8,8,
{16},,5,,3,4,3,4,2x-4[8:1],,,,8,,,,2-8[8:1],,2,,7-4[8:1],,,,7/1qq7>8q5[8:4],,,,1,,6h[8:3],
{16},,,,,,,,,8h[4:1],,,,1,,2,,3-5[8:1]/5,,,,6,,6pp4[16:5],,,,,,2,,2,,,3,4,,2/5,,,,
{16}7/4,,6>3[6:1],,5,,7b,,,,,,2/5,,3<6[6:1],,4,,2bp8[16:6],,,,,,,,,,
{8}7,,
{16}5/1,,7<4[6:1],,8,,7b/1,,,,,,3/8,,2>5[6:1],,1,,2b/8,,,,7,,7/5p4[4:1],,,,5/4-2-8-6p4b[4:7],,,,,,,,,,,,,,,,
,,,,,,,,,,,,,,,,2,,3,,5,,6<2[6:1]/4,,,,5,,
5qq3[6:1],,,,,,,,8,,,,7,,,,5/6,,,,3,,2/4,,,,8,,7qq5[4:1]/5,,,,
,,3,,,,,,1,,,,8h[8:2]/7h[8:2],,,,,,2h[4:1]/1h[4:1],,,,,,7-1v4[8:5]/3>5b[8:5],,,,,,,,
,,,,,,,,
{8}
||Chapter
2:Apllo
||L----------Nanamor1----------
(115)
2q6[2:1],,,,,,7pp4[2:1],,,,,,1pp4[2:1],,,,
,,5,,,,6,,7p3[2:1]/3,,,,2,,1pp4[2:1],,
,,8,,7pp4[16:9]*p2[16:4],,,,,,,,,,,,1-5[4:1]/5h[4:1]
,,,,E7,,8-4[4:1]/4h[4:1],,,,E3,,1pp5[2:1]/5h[4:1],,,,E7
,,8pp5[2:1],,4,,E4,,2>5[4:1],,5,,E7,,8<5[4:1],,5
,,E4,,2pp5[2:1],,5,,E7,,8pp5[2:1],,,,,,
4pp5[8:3]*>8[8:3],,,,,,
||M----------カザリア----------
{8}18,7,5,6,4,5,3^8[8:1],,
{8}7qq4[8:3],,1,,2h[4:1],,4,3,
{8}5,4,6^1[8:1],,2pp5[8:3],,8,,
{8},7,5,6v4[16:3],,3,3V57[4:1],,
{8}7V13[4:1],,3,,4,5<4[8:3],6,7q4[8:1],,,
{8},4>5[8:3],3,2p5[8:1],,,,4,
{8}3h[8:6],2,1,8,7^5[8:1],,7>5[4:1],,
{8},,2h[4:1],,5,6h[8:5],8,1,
{8}2^4[8:1],,2<4[4:1],,,,,6,
{8}5,7h[4:1]/4,,2,1^4[8:1]/5,,1<4[4:1],,
{4}1,3w7[2:1],,,
{8},,15,,24,,3h[4:1],,
{8}5,4,6pp5[8:3],,2^5[8:1],,2x,,
{8}6,,7h[4:1],,3,4,2qq4[8:3],,
{8}7^4[8:1],,7x,,3,,2h[4:1],,
{8}5,4,6pp4[8:3],,1^4[8:1],,1x,,
{8}5,,6h[4:1],,3,4,2,6,
{4}1s5[8:5],,,7s3[8:5],
{4},,2>6>1[8:10],,
{4},,,,
||Chapter
3:Diana
||N----------Ylng/Yeling----------
(160)
{16}6h[8:6],,,,,,E7/B6,,,,,,E3/B2,,,,
{16}2x>4[8:1],,,,1,,1x,,,,5,,4/6,,,,
{16}7x<5[8:1],,,,8,,8x,,,,4,,5/3,,,,
{16}2x>4[8:1],,,,1,,1x,,,,5,,6/4,,,,
{16}7h[8:6]/E5/B4,,,,,,E3/B2,,,,,,E1/B8,,,,
{16}8x<5[8:1],,,,3,,3x,,,,4,,3/4,,,,
{16}1x>4[8:1],,,,6,,6x,,,,5,,5/7,,,,
{16}8x<5[8:1],,,,3,,3x,,,,2b/4,,1/6b,,,,
{16}8-5[8:1]/7,,,,6,,6,,4,,2/5,,,,1x-4[8:1]/4-1[8:1],,,,,,,,8-5[8:1],,,,4,,,,,,
{16}1-4[8:1],,4-1[8:1],,,,,,5x,,5x/2x,,,,1>4[8:1],,,,1/4,,,,8<5[8:1],,,,8/5,,,,3x,4x,
{16}2bx-5[8:1],,,,6,,6b,,,,3<7[4:1],,2h[4:3]/5<1[4:1],,,,,,,,,,,,,,4,,1>4[8:1]/5,,,,1<6[8:1]/7,,,,4,,4b,,,,3<8[16:5],,2h[4:3]/5<1b[16:4],,,,,,,,,,,,
{16}4,,6,,8,,3x,1x,
{16}2bx-5[8:1],,,,6,,6,,1x,,3x-5[12:1]/8x,,,,6-3[8:1],,,,2-6[8:1],,,,8>3[8:1]*<5[8:1],,,,,,,,,,
{16}7-4[8:1],,,,3,,3,,8x,,6x-4[12:1]/1x,,,,3-6[8:1],,,,7-3[8:1],,,,1<5[6:1]*>5[6:1],,,,,,,,,,
{16}1>4[8:1],,,,1/6,,8h[4:1],,,,6,,4/7-4[8:1],,,,3/7,,,,1,,1h[4:1],,,,6,,4/7-4[8:1],,,,
{16}1-5[8:1]/7,,,,1,,8-4[8:1],,,,8/3s7[8:5],,,,E1f,,,,,,,,,,,,,,
{16}1/6,,2,5,
{16}4b>1[8:1],,,,7,,7<4[8:1],,,,3>8[8:1],,,,3<6[8:1],,,,3pp6[4:2],,,,7h[8:5],,,,,,,,,,5,,3,,1,,2h[4:1]/6,,,,3,,5/8w4[4:3],,,,,,,,,,,,,,,,,,,,
{16}5b<8[8:1],,,,2,,2>5[8:1],,,,6<1[8:1],,,,6>3[8:1],,,,6pp3[4:2],,,,1h[8:5],,,,,,,,,,2-5[8:1],,,,2/8,,6-1[8:1],,,,6/4,,2h[4:2],,,,4,,4,,5,,6,,3>1[12:1],7<5b[12:1],4,8,,,,,
||P----------differ----------
{8}1b-6[8:1],,1-4[8:1],4V25[4:1],5,6,8b>6[2:1],,,,,,C,,,,
8b-3[8:1],,8-5[8:1],5V74[4:1],4,3,1b<3[2:1],,,,A1,,C,,A5,,
6bpp4[1:1]/5b,,,,4,3,2bpp4[4:1],,,,,,5,4,6,,
2/7b>2[4:1],,2>5[4:1],,5<8[4:1],,8>6[2:1],,5p4[2:1],,,,,,,,
{16}7,,6,5,6,,4,5,4,,6,5,6,,3,5,
3,,7,5,7b-5[8:1],,,,1,,,,7b-5[8:1],,,,
1,,3,4,3,,5,4,5,,3,4,2-6[8:1],,,,
7,,,,5>2[8:1]/8<5[8:1],,,,8/5pp6[32:7],,,,,,,,
1,,7,5,7,,3,4,3,,6,5,7-3[8:1],,,,
2,,,,15,,,,2-6[8:1],,6-4[8:1],,4-1[8:1],,,,
8-5[8:1],,,,2-7[8:1],,,,6-3[8:1],,,,1,,,,
7,5,6,,34,,2,,1x,2x,3x,4x,8x,7x,6x,5x,
1b,,7b>1[8:1],,,,7/1,,2-6[8:1],,,,2/6,,4<7[8:1],,
,,24,,3V51[4:1],,,,3/1-6[8:1],,8,,7b,,,,
84,,2>5[8:1],,,,2,,6<1[8:1],,,,63,,5-2[8:1],,
,,51,,8V62[4:1],,,,2-5[8:1]/8,,1,,8b<1[8:3],,,,
6h[4:1],,,,,,,,2/8>7[8:3],,3,,4h[4:1],,,,
,,3,,2,,5,,1/7,,56,,3h[8:1]/4h[8:1],,,,
1b<6[8:1]/2,,4,,1b,,3,,4b>1[8:1],,5,,4b/6,,7,,
8b,,,,1<6[8:1],,6>3[8:1],,1b,,,,,,,,
||Q----------Rotifera----------
(140)
{384},,,,,,,,,,,,,,,,,,,
{8}
1/2,1/2,3-8[8:1]/4-7[8:1],,3/4,,,,
1/2,,3q8[8:1]/4<7[8:1],,3/4,,,,
7/8,7/8,6-1[8:1]/5,,6/5-2[8:1],,5/6,,8>3[8:1]*<5[8:1]/3,,8w4[8:1],,
||Chapter
4:Minerva
||R
8bpp3[4:5]*qq5[4:5],,,,,,,,,,,,,,,,
2h[4:1],,4h[4:1],,6h[4:1],,8h[4:1],,
2,3,4,5,4,5,6,7,
1,,2,3,4h[4:1],,5,,
8,,7,6,5h[4:1],,4,,
2h[4:1],,8h[4:1],,6h[4:1],,4h[4:1],,
2q4[4:2],,,,{16},,7,6,5,,,,
||S
{8}3-8[8:1],,7-4[8:1],,4,,3,2,
1-4[8:1],,5-8[8:1],,1,,2h[4:1],,
4h[4:1],,5,5,3/6,,1pp4[4:2]/8qq5[4:2],,
1/8,,,,,,1/8,2/7,
3/6-1[8:1],,2-5[8:1]/6,,7-4[8:1]/2,,3-8[8:1]/7,,
7-2[8:1]/3,,3-6[8:1]/7,,3/5-8[8:1],,5/1-4[8:1],,
{16}1,,6,5,6,,6,7,6,,6,8,6,,6,1,
6,,6,2,6,,6,3,6,,6-1[8:1],4,6,,1,,
{16}2,,2,1,2,,2,3,2,,2,4,2,,2,5,
2,,2,6,2,,2,7,2,,2-5[8:1],8,2,,{8}2,
||T----------In_Cyan----------
(160){4},{8},8,
1-5[8:1],{4}5pp8[16:7]*qq2[16:7],A5f/D6/D5,
{8},,,3,{4}7<4[8:1],1-5[8:1],
{8}1,7,,8-4[8:1],4qq1[16:7]*pp7[16:7],8,{4}A4f/D5/D4,
{8},,,2,{4}6>3[8:1],2-5[8:1],
{8}2,6,,7-3[8:1],3qq8[16:7]*pp6[16:7],7,{4}A3f/E3/E4,
{8},,,1,{4}5-7[8:1],4-8[8:1],
{8}4,7pp6[4:1],,7/3,{4}4,3qq4<8[8:5]/5pp4>8[8:5],
,,,2x-6[8:1]/1x-5[8:1],
{8},,3h[8:1],4h[16:3],{16},5,,,{4}7qq4[8:3]/8pp3[8:3],
{8},,,,,4/3,{4}5qq2[8:3]/7qq4[8:3],
,,1x-5[8:1],1bx/7xpp4[8:3],
{8},4,,3bx-7[8:1],,3/7,{4}6bx>8[8:3]*p8[8:3],
{8},,,,,7qq4[8:3],{4}3h[8:5],
{8},,,,2,1-7-2-6-3[8:5],{4}8h[8:5],
{8},,,,7,6>8[8:3],{4}5h[8:5],
{8},,,,7h[8:1],5,{4}4s8[8:3]/6z2[8:3],
{16},,,,,,,,,1h[32:9],{32},,,,,,,,(206)8b/2q3[8:7],3/7,4/6q7[16:13],5,
{1},{4},{16},,{8}8bxh[1:1]/1<2b[1:1],
,,,,,,,,,,,1pp4[8:7]/6pp5[8:7],
{1},{4},{8},{16}2x/6x,
3x,4x,5x,6x,7x,8x,1xh[16:5],,,,,6x,
5x,4x,3x,2x,1x,8x,7x,{8}6xh[4:1],,
||Chapter
5:Mars
||V----------smarthehe----------
||s3/4
1,,,7,,1,38,,6-3[6:1]/2,,,,
8>5[8:3],,,,6,7,8-4[8:1],,4,,26,,
8/3h[8:5],,,2,,8,26,,4-1[6:1]/8,,,,
{16}
6,,3,4,3,,5,4,6,5,6,4,5,3,4,,2x-5b[8:1],,,,,,,,
{8}
8b,8<5[16:3],,1,1pp8[4:2],,4<7[4:1]/1,,,,,,
2,34,,6,7/8V62[16:5]*-5-3b[16:5],,8,,,,,,
3/7,2>5[16:3],,1,1qq2[4:2],,3<6[4:1]/1,,,,,,
7,81,,2,3<5p1b[16:5]/8-5<7[16:5],,
||s2/4
38,,,,
||s3/4
8bx,1>4[16:3],,8,8qq1[4:2],,5>2[4:1]/8,,,,,,
7,56,,3,2/1V38[16:5]*-4-7b[16:5],,1,,,,,,
6/2,7<4[16:3],,8,8pp7[4:2],,6>3[4:1]/8,,,,,,
2,18,,7,6-4v7[16:5]/8v3-1b[16:5],,
||s2/4
68,,,,
||s3/4
2bxqq7b[4:3]`6xqq3[4:3],,,,,,,,,,15,,
2>5[4:1],,6,7,8,,7<4[4:1],,3,2,1,,
||W
8b,8-5[16:3],,6,6x,,4>6[8:3],,1,,5,,
4,4-1[16:3],,2,2x,,
||s2/4
8q4b[16:3],,6,,
||s3/4
5,5-8[16:3],,7,7x,,1>7[8:3],,4,,8,,
1,1-4[16:3],,3,3x,,6<2[16:5]*q2[16:5],,,,,,
||X
3,3>8[16:3],,5,4pp3[4:2],,2<7[4:1]/4,,,,,,
6,54,,3,2<8q4[16:5]/5-8<6b[16:5],,
||s2/4
25,,,,
||s3/4
5x,4>1[16:3],,5,5pp4[4:2],,8>3[4:1]/5,,,,,,
6,87,,2,3/4-1-5[16:5]*-8-6b[16:5],,4,,,,,,
||Y
4b,4-1[16:3],,2,2x,,8<2[8:3],,5,,1,,
8,8-5[16:3],,6,6x,,
||s2/4
4q8b[16:3],,2,,
||s3/4
1,1-4[16:3],,3,3x,,5<3[8:3],,8,,4,,
5,5-8[16:3],,7,7x,,1pp3[4:1]*qq7[4:1],,,,,,
2b>5b[16:3]/6<1[16:3],,,,,,7<4[16:3],,3>5[16:5],,3,,
4xw8[16:3],,,,,,5bxw1b[16:3],,,,,,
||Z----------星見カエデ&reflectW----------
(160){16}5b/7b,,64,,53,,3,4,,2,1,,3hx[8:1]/8x,,7x,,
{16}6,,35,,24,,7x,5x,,8,1,,3,4,3,,
{16}2,,35,,46,,6,5,,7,8,,6hx[8:1]/1x,,2x,,
{16}3,,26,,73,,4,6,3,5,4,,63,,72,,
{16}1x/8x,,28,,17,,8,1,,6,5,,74,,83,,
{16}2x,,12,,78,,6,5,7,5,6,,2,8,1,,
{16}8x,,78,,12,,3,5,2,4,3,,4x/2x,5,6,7,
{16}8/2bx,,3,3,4,,1/7bx,,6,6,5,,6b^3[8:1]/3b,7x/2x,8x/1x,,
{16}2-6[8:1],,,,8-5[8:1],,,,4-7[8:1]*-8[8:1],,,,4,,,,
{16}16,,16,,3,4,2,,6qq5[16:3],5,7,,2,,,,
{16}1-5[8:1],,,,13,,,,8-4[8:1],,7,,86,,,,
{16}1^6[8:1],,2,,13,,,,8^3[8:1],7,6,,7b/8b,,,,
{16}5-7[8:1]/4,,,,3>7[16:4],,,,7,,6,,5,,,,
{16}4/2-4[8:1],,,,7V15[16:4],,,,4,,3,,2<6[4:1],,,,
{16}6^3[6:1],,,,2,,1,,8w4[8:1],,,,,,,,
{16}8b-6[8:1],,,,5b-1[8:1]/8b,,,,2b-5[8:1]*-7[8:1]/5b,,,,2b,,,,
{16}6^1[8:1],,,,2^5[8:1],,,,6-1[8:1]*-2[8:1],,,,6,,,,
{16}83,,83,,6,5,7,,3pp2[16:4],4,2,,8,,,,
{16}1-5[8:1],,8,,17,,,,1-5[8:1],,2,,13,,,,
{16}8^3[8:1],,7,,86,,,,8^5[8:1]*-4[8:1],1,2,,8b,,,,
{16}4-2[8:1]/5,,,,6,,7,,8V26[16:4],,,,2,,3,,
{16}4>8[4:1],,,,8p3[4:1],,,,3p7[4:1],,,,7<3[4:1],,,,
{16}3p6[4:1]*>6[4:1],,,,,,,,,,5<4[16:7],,5pp4[16:5],,,,
{16},,,,,,,,3x,4,5,6,7,8,1,2,
||AA----------Kondou----------
{8}4bhx[8:2]/3bx,,1,,5h[8:2]/6,,8,,34,3h[8:2]/4,,1,1^7[8:1]/2,,,,
5hx[8:2]/6x,,2,,3/4h[8:2],,7,,56,5/6h[8:2],,8,8^3[8:1]/7,,,,
5x/4x,,7,7,86,,2,2,1-4[8:1]/3-8[8:1],,,,{16}5-1[8:1]*-7[8:1],,,,,,,,
{16}8b/2bq6[8:1],,,,26,,7,,8-3[8:1],,,,83,,,,5^2[8:1],,,,65,,7,,8-5[8:1]*-3[8:1],,,,8,,,,
2bpp1[8:2]/4b,,,,62,,7,,8^5[8:1],,,,82,,,,3,4,3,4,2,5,2,5,{24}1x,8x,7x,6x,5x,4x,3x,2x,1x,8x,7x,6x,
||BB
{8}5bx-2[8:1]/8bx-4[8:1],,8/5^8[8:1],,2-6[8:1]*-5[8:1]/5,,2<4[8:2],,8/2,,7x>5[8:2],,71,,2xpp1[8:2],,
28,,6pp4[8:2],6,4,,2-6[8:1],,2/5-8[8:1],,3-7[8:1]/5,,1^6[8:1]*^4[8:1]/3,
,1b,,
5,6,71,{16}2,2,4,,3,,82,,7,7,5,,6,,71,,3,3,4,,1,,8-5[8:1]/2-7[8:1],,,,
{8}8b>4[8:1]/2b,,,,7,65,54,43,2b-6b[8:1],,12,,{24}8x,7x,6x,5x,4x,3x,2x,1x,8x,7x,6x,5x,
{8}4bx-7[8:1]/8bx^3[8:1],,8/4p8[8:1],,6-2[8:1]*v1[8:1]/4,,6qq7[8:2],,6/3,,1pp8[8:2],,1/5,,7pp3>5b[8:5],,
7b/4bh[8:4],,,,,3,2-5[8:1],1,82,7,61,{16}3,4,3,5,4,5,2b,,8,8,
{8}7bh[8:6]/1bpp4[8:4],,,,,,{24},,,7x/4x,6x/3x,5x/2x,{8}1b/4bpp1[8:4],,,,,,,{24}8x/2x,7x/3x,6x/4x,
{8}5bpp5[8:4]*qq5[8:4],,,,,,,,{24}2b/6b,1,8,7,6,5,4,3,2,1,8,7,E6,E5,E4,E3,E2,E1,E8,E7,E6,E5,E4,E3,
{8}8bhx[8:16]/E2f,,,,,,,{16}5x,5x,{8}5hbx[8:8],,,,,,,,
||Epilogue:Love
and
Revival
||CC----------霧氷優佳子----------
{8},,,,,,5h[16:1]`6,,,,,,4h[16:1],,,,
,,3h[16:1]`4<6[4:1],,,,,,2h[16:1],,,,,,1h[16:1]`8,,
,,,,7h[16:1],,,,,,6h[16:1]`5>3[4:1],,5,,,,
5h[16:1],,4<6[4:1],,,,3h[16:1],,6>4[4:1],,,,2h[16:1],,4<6[4:1],,
,,1h[16:1],,6>3[4:1],,
{16}
E5,,E3,,1h[16:1],,,,8<5[4:1],,,,,,,,
2h[16:1],,,,4<7[4:1],,,,,,,,3h[16:1],,,,
8>3[4:1],,,,,,,,4h[16:1],,,,5h[4:1],,,,4,,
3,,2>5[4:1],,,,6h[4:1],,,,,,,,
7h[8:6]/5<4[8:6],,,,,,,,,,,,,,,,6,,,,
5h[4:1],,,,4>1[8:2],,,,6,,,,
7h[4:1],,,,8,,1,,2<7[4:1],,,,6h[4:1],,,,,,,,
5<3[8:4],,,,,,,,5,,,,6h[4:1],,,,4>5[8:6],,,,3h[8:6],,,,,,,,,,,,,,,,
5<8[4:1],,,,4,,,,3>3[8:8],,,,,,,,,,,,,,,,,,,,
7h[4:1],,,,1,,,,8<1[8:4]/1,,,,,,,,,,,,4h[4:1],,,,8<5[4:1],,,,2<3[8:4],,,,,,,,,,,,
6<1[4:1],,,,3h[4:1],,,,,,3,,1<6[8:2]/4,,,,C,,,,E5,,,,
||DD----------一夕----------
{8}36,,{32}E2/7h[2:1],E3,E4,,{16},,,,,,2,,,,
{32}E8/1h[2:1],E7,E6,,{16},,,,,,4,,,,5q1[8:2],,,,
3,,,,2>5[8:2],,,,,,,,7p3[8:2],,,,2,,,,
1,,,,8>4[16:5]/4,,,,5,,,,
6p2[8:2],,,,3,,,,4,,,,5/1<5[8:2],,,,
4,,,,3,,,,2/6,,,,15,,,,
48,,,,{32}E8/2h[2:1],E7,E6,,{16},,,,,,7,,,,
{32}E2/8h[2:1],E3,E4,,{16},,,,,,5,,,,4p8[8:2],,,,
6,,,,7<4[8:2],,,,,,,,3,,,,2q6[8:2],,,,
8,,,,1<5[16:5],,,,5,,,,4,,,,
6/2,,,,8>4[16:5]/4,,,,5,,,,6,,,,
37,,,,28,,,,7h[8:2],,,,
5-1[8:2],,,,1>5[8:2],,,,5<1[8:2],,,,1q5[8:2]*>7[8:4],,,,
,,,,,,,,8q4[8:2],,,,4<3[8:4],,,,
,,,,3q8[8:2],,,,8>6[8:4],,,,,,,,
,,,,7,,,,4-8[8:2],,,,,,,,
7p3[8:2],,,,3,,,,1q5[8:2],,,,7,,,,
8<4[8:3]*>4[8:3],,,,,,,,,,,,2h[8:2],,,,
4-8[8:2],,,,8<4[8:2],,,,4>8[8:2],,,,8p4[8:2]*<2[8:4],,,,
,,,,,,,,1p5[8:2],,,,5>6[8:4],,,,
,,,,6p1[8:2],,,,1<3[8:4],,,,,,,,
,,,,8-4[8:2],,,,3,,,,2,,,,
1-5[8:2],,,,6,,,,7,,7h[8:4],,,,2h[4:1],,
,,,,27,,,,E4,,E5,,E6,,,,
||EE--------------------
8<6[8:1],,,,4>2[16:2],,,,
5p1[8:2],,,,1p4[8:2],,,,,,,,,,,,5/1>4[8:2],,,,
,,,,6<8[8:1],,,,2>4[8:1],,,,1p5[8:2],,,,,,,,
4p8[8:2],,,,8<5[16:4],,,,5>1[8:3],,,,7,,,,
8-4[8:2],,,,,,,,3q8[8:2],,,,8<4[3:1],,,,
5>2[8:2],,,,2>8[16:7],,,,,,,,1,,,,
1x,,,,5q1[8:2]/3,,,,1q5[8:2],,,,5<3[2:1],,,,
1,,,,3q7[8:2],,,,4h[4:1],,,,,,,,
3<7[4:1],,,,7>3[4:1]*q3[4:1],,,,,,,,,,,,
4p8[8:2]/6,,,,8p4[8:2],,,,4>6[2:1],,,,8,,,,
5x,,5,,5,,5,,4x,,4,,4,,4,,
36,,2-6b[8:3]/7,,1b/8b,,,,,,,,,,,,
||FF----------uapy----------
{4}1bpp4[2:1],
7,6,5pp8[2:1],3,
2,1pp2[16:5],8,7,
6<4[2:1],,,1-5[4:1],
5-3[8:1],7,1-5[4:1],5-7[8:1],
3,1<7q3[8:3],{8},5,{4}5pp7pp1[16:9]*qq3qq1[16:9],
,,,8/2q6[4:1],
6>3[16:3],8,7q3[4:1],3>8[16:3],
5,4p7[4:1],{8}7q5[4:1],6,{4}5V38[2:1]*V72[2:1],
,,,1>4[4:1],
4<6[16:3],7,1<6[4:1],6>4[16:3],
3,1p4[4:1],{8}4p7[4:1],5,{4}6pp3[2:1],
,,1,8b/2b-5-3[4:1],
{8}8,7,{4}6pp1[2:1],2,3,
4,5/8-5-7[4:1],{8}4,3,{4}2pp6[2:1],
1,8,7,5>1[4:1],
1pp2[4:1],7,5<1[4:1],1qq8[4:1],
3,5-2[4:1],{8}2-7[4:1],8-5-2[2:1],{4}7-4-1[2:1],
,,8x,7qq4[2:1],
{8}3,2,{4}1-5-2-4[2:1],1,6,
7,8qq5[2:1],{8}5,4,{4}3-1-4-8[2:1],
3,5,6,7pp8[4:1],
8-5-7[4:1],4,3pp4[4:1],4-1-3[4:1],
7,5<1[4:1],{8}1-5[16:3],3,5w1[2:1],,
{4}5?w1[0##0.75]*w1[0##0.75],,,
||GG----------艾瑞----------
{4}7bqq3[8:3],,,
{4}1>5[4:1],5<1[4:1],1,
{4}5pp1[8:3],4,4,
{4}4p2[8:3]*q6[8:3],,,
{4}7bqq3[8:3],,,
{4}1>5[4:1],5<1[4:1],1,
{4}5pp1[8:3],4,4,
{4}4pp7[8:3]*qq1[8:3],,,
{4}2bpp6[8:3],,,
{4}8<4[4:1],4>8[4:1],8,
{4}4qq8[8:3],5,5,
{4}5q7[8:3]*p3[8:3],,,
{4}2bpp6[8:3],,,
{4}1>5[4:1],5<1[4:1],1,
{4}5pp1[8:3],4,4,
{16}2,2,4,4,5,5,7,7,1^4[8:1],,,,
{4}7bpp8[4:1],8<4[4:1],4,
{4}2<6[4:1],6>2[4:1],2,
{4}6pp2[8:3],4,4,
{16}1,8,7,6,5,4,3,2,1<6[8:1],,,,
{4}2bqq1[4:1],1>5[4:1],5,
{4}7>3[4:1],3<7[4:1],7,
{4}3qq7[8:3],5,5,
{4}5qq8[8:3]*pp2[8:3],,,
{4}2bqq1[4:1],1>5[4:1],5,
{4}7>3[4:1],3<7[4:1],7,
{4}3qq7[8:3],5,5,
{16}8,1,2,3,4,5,6,7,8>3[8:1],,,,
{4}7bpp8[4:1],8<4[4:1],4,
{4}2<6[4:1],6>2[4:1],2,
{4}6pp2[8:3],4,4,
{4}Ch[8:6],,,
||II----------Dororo----------
{16}B7h[4:3]/B3h[4:3],,,,,,,,,,,,
{16}A7h[4:1]/A3h[4:1],,,,B6h[4:1]/B2h[4:1],,,,B8h[4:1]/B4h[4:1],,,,
{16}B7h[4:3]/B3h[4:3],,,,,,,,,,,,
{16},,,,,,,,,,,,
{16}B6h[4:3]/B2h[4:3],,,,,,,,,,,,
{16}A6h[4:1]/A2h[4:1],,,,B7h[4:1]/B3h[4:1],,,,B5h[4:1]/B1h[4:1],,,,
{16}B6h[4:3]/B2h[4:3],,,,,,,,,,,,
{16}Ch[4:3],,,,,,,,,,,,
{16},,,,,,,,,,,,
{16},,,,3!^6[4:1],,,,,,,,
{16},,,,2!q7[4:1],,,,,,,,
{16},,,,,,,,,,3!^4[16:1]/6!^5[16:1],,
{16},,,,,,,,,,,,
{16},,,,6!^3[4:1],,,,,,,,
{16},,,,7!p2[4:1],,,,,,,,
{16},,,,,,,,,,,,
{16}1!^2z6^5[2:1]/8!^7s3^4[2:1],,,,,,,,,,,,
{16}3!s7[2:1]/6!z2[2:1],,,,,,,,,,,,
{16}4!-8[4:1],,,,,,,,4!-1[4:1]*-7[4:1],,,,
{16},,,,4!w8[4:1],,,,,,,,
{16},,,,Ch[4:5],,,,,,,,
{16},,,,,,,,,,,,
||JJ
(170)
{16}1xbh[8:7],,,,,,,,2,,3,,4,,5,,
{16},,,,,,,,,,,,,,,,
{16}8xh[8:7],,,,,,,,7,,6,,5,,4,,
{16},,,,,,,,,,E4,,E6,,E5,,
{16}2x/6x,,1,,26,,7,5,6-1[8:1],5,7,,2-6[8:1]/6,,,,
{16}28,,7,,28,,3,4,2-5[8:1],4,1,,2/8-4[8:1],,,,
{16}38,,2,,38,,7,5,8-3[8:1],5,7,,38,,,,
{16}2,4,3,,7,5,6,,4,,7x/8x,,5,,1x/2x,,
{16}73,,8,,73,,2,4,3-8[8:1],4,2,,7-3[8:1]/3,,,,
{16}71,,2,,71,,6,5,7-4[8:1],5,8,,7/1-5[8:1],,,,
{16}61,,7,,61,,2,4,1-6[8:1],4,2,,61,,,,
{16}5x/7,4,3,2,4x,5,6,7,1/8,,2x/7x,,36,,4x/5x,,
{16}3,4,3,4,2,5,1,6,8,7,8,7,1,8,2,1,
{16}3,8,4,7,5,6,5,6,{24}4b,5x,4x,5x,4x,5x,4x^1[8:1],5x,4x,5x,4x,5x,
(157)
{16}4xbqq1[44.5#64:18],,,,,,5bpp8b[77.9#64:32],,,,,,1b/8b,,4b/5b,,
{16},,,,,,,,,,,,,,,,
||监修Mmmmmk&Dororo
E
