&title=Base After Base
&artist=DJVI
&first=0
&des=imdumb2024
&lv_1=?
&lv_3=7+
&inote_1=(141)
{8}
,,,,,,,,1,,2,,3,,4,,5,,,,6,7,8,,8,,7,,6,,5,,4,,,,3,2,1,,
5h[1:1],,3,,2,,1,,
1h[1:1],,,,7,6,5,,
7h[1:1],,5,,4,,3,,
2h[1:1],,,,4,5,6,,
7-5[4:1],,,,2-4[4:1],,,,8-6[4:1],,,,1-3[4:1],,,,
4-8[4:1],,,,5-1[4:1],,,,
67,,78,,81,,12
,,
8<6[4:1]/1h[2:1],,,,4>2[4:1]/5h[2:1],,,,
7>1[4:1]/6h[2:1],,,,2<8[4:1]/3h[2:1],,,,
6,,5,,3,,4,,7,7,2,2,8,8,1,1qqq,
8qq5[4:3]/1pp4[4:3],
&inote_3=(141)
{8}
,,,,,,,,1,,2,,3,,4,,5,,,,6,7,8,,8,,7,,6,,5,,4,,,,3,2,1,,
5h[1:1],,3,,2,,1,,
1h[1:1],,,,7,6,5,,
7h[1:1],,5,,4,,3,,
2h[1:1],,,,4,5,6,,
7-5[4:1],,,,2-4[4:1],,,,8-6[4:1],,,,1-3[4:1],,,,
4-8[4:1],,,,5-1[4:1],,,,
7h[4:1],,8,,2h[4:1],,1,,
8<6[4:1]/1h[4:1],,,,4>2[4:1]/5h[4:1],,,,
7>1[4:1]/6h[4:1],,,,2<8[4:1]/3h[4:1],,,,
,,5,,3,,4,,7,7,2,2,8,8,1,1,
8qq5[4:3]/1pp4[4:3],,,,,,,,,,,,,,
7b/2b,,6,,5,,3,,4,,
6h[1:1]/3h[4:1],,,,2,1,8,,
7,,8,,2,,1,,
3h[1:1]/6h[4:1],,,,7,6,5,,
7,,2,,6,,3,,
8,1,7/2,,5,4,6/3,,
4,,5,,1,,8,,
7h[4:1]/8-4[4:1],,,,2h[4:1]/1-5[4:1],,,,,
6,7b,,4,3,2b,,
6,8,2b,,3,1,7b,,
5h[4:1]/3,2,1h[2:1],,6,7,8h[2:1],,6,5,4h[2:1],,3,2,1,,
8pp2[4:1],8,,,3pp5[4:1],3,,,
6pp8[4:1],6,,,1pp3[4:1],1,,,
,,67,,54,,32,,
8,8,1,1,7,7,2,2,
6b/3b,,54,,63,,72,,
8-5[16:1]/1-4[16:1],,,,5-8[16:1]/4-1[16:1],,,,
81,,72,,63,,54,,
5v7[16:1]/4v2[16:1],,,,8v6[16:1]/1v3[16:1],,,,
6h[1:1],,,,4,4,3,3,
2-5[8:1],,,,7-4[8:1],,,,
6h[4:1]/5,,5,,3h[4:1]/4,,4,,
8,1,7,2,6b,3b,5b,4b,
{16}
5b/4,,,,5,,5h[4:1],,,,,,,,6,,6,,,,,,7h[4:1],,,,,,7,,7,,
8b/1,,,,1,,1h[4:1],,,,,,,,2,,2h[4:1],,,,,,,,3,,,,4,,,,
6b/5,,,,4,,4h[4:1],,,,,,,,2,,2h[4:1],,,,,,2,,1,,8,,7,,6,,
6h[4:1],,,,3h[4:1],,,,7h[4:1],,,,2h[4:1],,,,8b,
