&title=ささのはに、うたかたに。 (GAME VERSION)
&artist=M・A・O; 中澤ミナ; 森下来奈; 立花理香; 鈴木みのり
&first=0
&des=SniperPigeon
&lv_5=12+
&inote_5=(85)
{1},
{16},,,,,,,,,,,,,,,,
{48}3h[4:3],B6,B5,{16},,,,,,,,,,,5,,6,,
{16}7h[4:4],,8,,1,,2,,3,,,,,,,,
{16}2h[4:3],,,,,,,,,,,,1,,,,
{16}3h[4:4],,4,,5,,6,,7,,,,,,,,
{48}6h[4:3],B3,B4,{16},,,4,,5,,7,,8,,1,,2,,
{16}3h[4:4],,4,,5,,6,,7,,,,,,,,
{48}6h[4:4],B3,B4,{16},,,,,,,4,,,,3,,,,
{16}1-5[4:2],,,,,,,,8,,7,,6,,5,,
{16}4-1[12:1],,,5h[16:5],4,,,,1>6[4:1],,,5,1,,7,,
{16}8h[4:3],,1,,2,,3,,4,,,,3,,2,,
{16}1/5-8[12:1],,,4h[16:5],5,,,,8<3[4:1],,,4,8,,2,,
{16}1p5^2^7[8:3],,,7,1,,,,5h[4:1],,,,4,,3,,
{16}2-5[12:1],,,8h[16:5],2,,,,5p1[12:1],,,6,5/6<4[4:1],,,,
{16}4q5[4:1],,,1,1h[8:3],,,,,,5,,6,,7,,
{16}7-4[12:1],,,1h[16:5],7,,,,4q8[12:1],,,3,4/3>5[4:1],,,,
{16}5p4[4:1],,,8,8h[8:3],,,,,,4,,3,,2,,
{16}1^4[12:1],,,8,1/7h[4:1],,,,5^8[12:1],,,4,3qq4[4:1]/5,,,,
{16}3/4q5[16:4],,,7,7,,,,8^5[12:1],,7,,81,,2,,
{16}3/8^5[12:1],,,1,8/2h[4:1],,,,4^1[12:1],,,5,6pp5[4:1]/4,,,,
{16}6/5p4[16:4],,,2,2,,,,1^4[12:1],,2,,18,,7,,
{16}8h[4:4],,,,1,,2,,3,,4,,5,,,,
{16}2h[8:7],,,,8,,7,,6,,5,,4,,3,,
{16}1^4qq5[4:2],,,,,,5,,6,,6,,7,,8,,
{16}8^5pp4[4:2],,,,,,4,,3,,,,2,,1,,
{16}8-4[4:2],,,7,1h[4:1],,,,,,,,3h[4:1],,,,
{16}7h[8:3],,,,,,4,7-3[12:1],6,5,,73,,,5,6,
{16}7b-4[8:1]/3bp7[12:1],,4>5[8:3],,37,,8x,,,,3,,2,,5pp5[4:1]/1,,
{16}2,,5qq5^8[8:3],,2,,3h[8:3],,,,,,,,8,7,
{16}2-5[8:1]/6q2[12:1],,5<4[8:3],,62,,1x,,,,6,,7,,4-8[12:1]/8,,
{16}62,,4/2pp1[4:1],,,,1>8[32:9],8<1[32:7],,,,,,,,,
{16}6V84[4:1]/2,,,,4V68-4[8:3],,3,,2h[8:2],,,,,,2,,
{16}2pp1[4:1],,3,,2/1<1[8:3],,8,,7h[8:2],,,,,,7,,
{16}6xV84[4:1],,,,,,3,2,1-5[8:1],,,,,,7,,
{16}8^5[12:1]/4^1[12:1],,,,8pp3[4:1]/4pp7[4:1],,,,84,,,,,,45,36,
{16}7b-4[8:1]/2b,,6,,7/1-5[8:1],,2,,1/8-6[12:1],,7,,8/2-6[8:1],,3,,
{16}8^5qq5[8:3]/2^5pp5[8:3],,1,,82,,,,,,,,37,,54,63,
{16}2-5[8:1]/7,,3,,2/8-4[8:1],,7,,8/1-3[12:1],,2,,1/7-3[8:1],,6,,
{16}7/1^4[8:1],,2,,1/5pp4[16:3],,6,4>8[16:3],5,,,,1,,3,,
{16}4b/7xqq4[4:2],,,,4,,3,,2h[4:1],,,,,,2,,
{16}1q5[12:1],,6,,1>1>4[4:2]/7p1[4:1],,8,,17,,,,,,,,
{16}5h[4:4],,,,,,,,3,,,,2,,,,
{16}1h[4:3],,,,,,,,8h[4:1],,,,,,18,,
{16}7/8<1[4:3],,,,,,,,,,,,8,,,,
{16}8h[4:2],,,,,,,,C,,,,,,,,E
