&title=メグメグ☆ファイアーエンドレスナイト
&artist=samfree
&first=0
&des=NaOH
&clock_count=4
&lv_6=13
&inote_6=(162){4},,,,4V26[4:2]/5V73[4:2],,,,
5,5,4,4,6,6,3,3,46,46,35,35,24,24,1-5[8:1]/5,{8}6,7,
8,7,6h[4:1],5-1[8:1],4,3,2,,2,3,4h[4:1],5-1[8:1],6,7,8,,
7h[4:1],6,5,4-8[8:1],5,6,7,,6h[4:1],5,4,3,{16}1,5,1,5,1-5[8:1],,,,
{4}1b/7bs3[4:4],,,,,,4-1[8:1]/5-8[8:1],4b/5b,
{16}3,4,3,4,2,5,2,,6,,6h[4:1],,4,,4,,37,,,6,5,,47,,3,4,2,,5,,46,,
{16}6,5,6,5,7,4,7,,3,,3h[4:1],,5,,5,,34,,2,,18,,7,,56,,7,,18,,2,,
{16}3,4,2,5,3,4,3,,2,,2h[4:1],,6,,6,,35,,,2,6,,17,,2,4,3,,6,,57,,
{16}7,4,6,5,7,4,7,,8,,8h[4:1],,4,,4,,7p4[4:2],,,3,,,1h[8:3],,,,,,,,,,
{8}2-5[8:1],2,6,6,7,8V64[4:1],,4V28[4:1],,8<4[4:1],,4p3[8:3],,2,2,,
{8}1>4[8:1],1,5,6,7<4[8:1],7,3,2V41[4:1],,5,6,7,8-4[8:1]*-6[8:1],,8,,
3-5[8:1],3,6,6,7,8q4[4:1],,4q8[4:1],,8V24[4:1],,4V68[4:1],,8>4[4:1],,4,,
1<3[16:7],2p2[16:5],,,,,,56,47,8-4[8:1]/3,2,8b/1b>4[8:1],,7b<4[8:1]/1b,,
3b>8[8:1]/7b,,6-3[8:1]/3,,2V48[4:1]/6,,8v5[8:1]/2,7,,7,6h[4:1],,7,8,1,28,
3-5[8:1]/7,,7-4[8:1]/3,,1-5[8:1]/7,,18,8V61[4:1],,1-5[8:1],1,,4,3,26,17,
2/8h[8:3],,5,5,3h[4:1],6,8<3[4:1],1,2h[4:1]/8,,,,2-6[8:1],,6-2[8:1],,
8h[4:1],,1,1/3h[4:1],,2,1<3[8:3],8,1b/7,,,,{16}6,2,6,2,6<4[8:3],,,,
6b/2h[4:1],,,,,,,,1s5[8:1],,,,1b/8b,,,,
{8}27,36,27,36,18,{16}7,5,,5,6pp4[8:3],,,,4,,3,,2,,,,1,,28,,37,,
7V51[4:1],,,,37,,2V48[4:1],,,,26,,,,7,,26,,35,,4,,35,,
1bv4[8:1]/7bv4[8:1],26,35,,1b/7b,,,,
{8}12,38,12,38,47,{16}6,5,,3qq5[8:3],4,,,,5,,6,,7,,,,8,,17,,26,,
3V51[4:1]/5,,,,37,,6V48[4:1],,,,26,,,,1,,2h[8:1],,6h[8:1],,4h[8:1],,8h[8:1],,
{16}3,7,3,7,1b,,,,
{8}2h[8:3],3,4,5,6h[8:3],7,8,1,2h[8:3],1,8,7,1-5[8:1],7-4[8:1],1,7,
3h[8:3],2,1,8,7h[8:3],6,5,4s8[8:3],3z7[8:2],,,,,,6-1[8:1]/2,,
2>5[8:1]/6,,6<1[8:1]/2,,3V52[4:1]/6,,36,8V61[4:1],,1-5[8:1],2,,3>8[4:1],,8<8[4:3],,
6h[4:3],,,,,,
,,,6pp4[8:3]/3,3qq5[8:2]/6,,,,,,
{16}
6,5,6,5,7,4,7,,1,,1,,28,,28,,3/7h[8:1],,4,6h[8:1],,3,5h[8:1],,2,4h[8:1],,1,1,,28,,
3,4,3,4,2,5,2,,6,,6,,57,,57,,4,8,4,8,3,7,3,7,2,6,2,6,1,5,1,5,
2,6,3,5,2,6,3,,8,,8,,17,,17,,6/2h[8:1],,5,3h[8:1],,6,4h[8:1],,7,5h[8:1],,8,8,,71,,
7,3,6,2,7,3,6,,3,,3,,24,,24,,1,5,2,4,3>5[8:3],4,3h[8:3],,,,,,,,,,,,
{8}
34,25,16,78,56,3bq2[4:3]/4b<1[4:3],1b/2b,,,,,,,
