&title=Misty Er'A
&artist=Mycin.T/jam-jam
&first=0
&des=Phoshydriodi
&lv_5=13+
&inote_5=(66)
{1},
{8},,,,,,,{48},,1,2,3,4,
{16}5h[8:7],,,,,,,,,,,,,,6,5,
{16}4/7h[16:7],3,2,1h[4:1],,,,,2h[8:1]/6,5,4h[4:1],,5h[8:1],,,,
{16}4h[1:1]/5h[1:1],,,,,,,,,,,,,,,,
(120)
{16},,,,,,,,,,,,4V63[8:3],,5,,
{16}6,,,7,,,8,,7,,6,,5V36[8:3],,4,,
{16}3,,,2,,,1V38[8:3],,,,4,,,,5,,
{16}6,,,7-4[4:1],,,8,,1,,2,,3,,4,,
{16}5h[16:3],,,7h[16:3],,,8,,7h[16:1],,6h[16:1],,5V36[8:3],,4,,
{16}3,,,2,,,1,,2,,3,,4V63[8:3],,5,,
{16}6,,,7,,,8h[8:1],,2h[16:3],,,4h[16:3],,,5-2[4:1],,
{16}6,,,7,,,8,,1,,2,,3V52[8:3],,4,,
{16}5,,,6,,,7h[8:1],,1-5[8:1],,,,1/5V74[8:3],,6,,
{16}7,,,8,,,1,,3,,2,,1z5[8:3],,4,,
{16}5,,,6,,,7,,8h[8:3],,4,,3,,2-7[4:1],,
{16}4,,,5,,,6,,7,,8V27[8:3],,1,,2,,
{16}3,,,4,,,6,,5h[16:1],,4h[16:1],,3V14[8:3],,2,,
{16}1,,,8,,,7h[8:1],,5s1[8:3],,4,,,3,,,
{16}2V84[8:3],,,3,,,4,,5-2[8:1]*v8[8:1],,,,,,,,
{16}1-4[8:1]*v3[8:1]/7,,,,,,,,2v5[8:1]/5-8[8:1],,,,,,,,
{16}1-6[8:1]/4-8[8:1],,,,,,,,1s5[8:7]/7z3[8:7],,,,,,,,
{16},,,,,,,,,,,,,,2/6,,
{16}1b-5[8:1]/7,,8V63[4:1],,1/7,,8b,,4,3,2h[4:1],,1b,8,7,6,
{16}8b-4[8:1]/5,,7V51[4:1],,8/6,,7b,,4,3,2h[4:1],,3b,4,5,6,
{16}5b-2[8:1]/7-4[8:1],,,,5-8[8:1]/7,,,,3/5V38[4:1],,,,5V73[4:1]/8V63[4:1],,,,
{16}5b,,,,,,1b/5h[4:1],,2,3,4h[4:1],,3b,2,1,8,
{16}5b-8[8:1]/7,,4V62[4:1],,3/5,,4b,,1-5[8:1],8,7,,1b/7-4[8:1],,,,
{16}4-8[8:1]/7b,,3V15[4:1],,2/4,,3b,,8,7,6h[4:1],,7b-5[12:1],8,1,2,
{16}3/7b,,1-4[8:1],,8,,1bV73[4:1]/7,,8-4[8:1],,1,,,,,,
{16}2-5[8:1]/5b-1[8:1],,1-6[8:1],,2V84[4:1]/5,,,,2b-6[8:1],,,,,,,,
{16}3b/5b,,2-5[8:1]/6V42[4:1],,1/7,,2bs6[4:1]/6bV84[4:1],,,,,,,,,,
{16}3b/7b,,2V48[4:1]/8-3[8:1],,1,,2b/8bV25[4:1]*V26[4:1],,,,,,,,,,
{16}4b/7b,,3-1[12:1]/8V63[4:1],,2,,3bV51[4:1]*s7[4:1]/8b,,,,,,,,,,
{16}2b/8b,,3V17[4:1]/7-2[8:1],,4/6,,3bV51[4:1]/7bV58[4:1],,,,,,,,,,
{16}2b/7b,,3V16[4:1]/6-8[12:1],,4/5,,3b/6bs2[4:1]*V48[4:1],,,,,,,,,,
{16}3b/7b,,4V26[4:1]/6V84[4:1],,5,,4bV61[4:1]/6bV41[4:1],,,,,,,,,,
{16}2,8,2,8,2,8,2,8,3,7,3,7,3,7,3,7,
{16}4,6,4,6,4,6,4,6,5-2[8:1],5,5,5,5s1[4:1],,,,
{16}3h[8:1]/5,,,2h[8:1],,,1,2/8V62[4:1],3/7h[16:3],,,8,,,5,,
{16}1h[8:1]/4h[8:1],,,2h[8:1]/8h[8:1],,,3/7,,4v1[8:1]*-8[8:1]/6,,,,,,,,
{16}2/7,,3,5,4,,5/7,,8,,5,6,4,,3/5,,
{16}6v1[8:1]/2-5[8:1],,,,,,,,8v6[8:1]/4v2[8:1],,,,,,,,
{16}2,6,4,5,6,5,4,6,3,4,3,2,3,8,2,5,
{16}3,6,5,6,7,6,5,7,4,5,4,3,4,1,3,7,
{16}5bV71[8:5]*V31[8:5],,,,,,,,,,,,,,,,
{32}2b/8b,3/7,4-8[2:1]/6,5s1[32:15]*s1[32:15],,,,,,,,,,,,,,,,,,,,,,,,,,,,,
{16}3v1[8:45]/7v5[8:45],,,,,,,,,,,,,,,,
{16},,,,,,,,,,,,,,,,
{16},,,,,,,,,,,,,,,,
{16},,,,,,,,,,,,,,,,
{16},,,,,,,,,,,,,,,,
{16},,,,,,,,,,,,,,,,
{16}2h[8:3],,,,1s5[8:3],,8,,7,,,,6v8[4:1],,,,
{16}4,,,,3,,2,,5,,4/6,,3,7,2,8,
{16}1b,,3V17[4:1]/7-2[8:1],,4/6,,3bz7[4:1]/7bV51[4:1],,,,,,,,,,
{16}2b/6b,,3V15[4:1]/5-7[12:1],,4,,3b/5bV38[4:1]*V37[4:1],,,,,,,,,,
{16}1b/6b,,2-5[8:1]/5V72[4:1],,3,,2bV84[4:1]*z6[4:1]/5b,,,,,,,,,,
{16}3b/5b,,2V46[4:1]/6-3[8:1],,1/7,,2bV84[4:1]/6bV85[4:1],,,,,,,,,,
{16}3b/6b,,2V47[4:1]/7-4[8:1],,1/8,,2b/7bz3[4:1]*V15[4:1],,,,,,,,,,
{16}2b/6b,,1V37[4:1]/7V51[4:1],,8,,1bV74[4:1]/7bV14[4:1],,,,,,,,,,
{16}3,5,3,5,3,5,3,5,2,6,2,6,2,6,2,6,
{16}1,7,1,7,1,7,1,7,8,8,8,8,8s4[4:1],7,1,6,
{16}8,,,,,,8,5,6-4[8:1]*-8[8:1],,,,6z2[4:1],,,,
{16}6h[4:1],,,,,,1,4,3-1[8:1]*-5[8:1],,,,3s7[4:1],,,,
{16}3h[4:1],,,,,,8,,2,2,4,4,6,6,8,3h[32:1],
E
&inote_6=
