&title=弱虫モンブラン (Reloaded)
&artist=DECO*27 feat. 初音ミク
&first=0
&des=Dororo
&lv_5=14
&inote_5=(124)
{1},
{16}5-8[8:1],,,,,,,,8-5[8:1],,4-2[8:1],,,,,,
{16}5-8[8:1],,,,,,,,8-5[8:1],,2-4[8:1],,,,,,
{16}5-8[8:1],,,,,,,,8-5[8:1],,4-2[8:1],,,,,,
{16}5-8[8:1],,,,,,,,8-5[8:1],,6-8[8:1],,,,,,
{16}4-1[8:1],,,,,,,,1-4[8:1],,5-7[8:1],,,,,,
{16}4-1[8:1],,,,,,,,1-4[8:1],,7-5[8:1],,,,,,
{16}4-1[8:1],,,,,,,,1-4[8:1],,5-7[8:1],,,,,,
{16}4-1[8:1],,,,4<8[4:1],,,,8>4[4:1],,,,,,,,
{16}1qq4[2:1],,,,,,,,4qq6[2:1],,,,,,,,
{16}7-4[8:1],,,,7-2[8:1],,,,7-3[8:1],,,,,,,,
{16}8pp5[2:1],,,,,,,,5pp3[2:1],,,,,,,,
{16}2-5[8:1],,,,2-7[8:1],,,,2w6[8:1],,,,,,,,
{16}5-1[8:1],,8-6[8:1],,,,,,1-5[8:1],,6-8[8:1],,,,,,
{16}4-8[8:1],,7-5[8:1],,,,,,8-4[8:1],,5-7[8:1],,,,,,
{16}3-7[8:1],,6-4[8:1],,,,,,7-3[8:1],,4-6[8:1],,,,,,
{16}2-6[8:1],,5-3[8:1],,,,,,8w4[8:1],,,,,,,,
{16}3-5[8:1]/6-4[8:1],,,,3v6[8:1],,,,3v8[8:1],,,,,,,,
{16}5^7[8:1]/6^4[8:1],,,,6-1[8:1]/5-2[8:1],,,,,,,,,,,,
{16}6-4[8:1]/3-5[8:1],,,,6q3[4:1],,,,3>6[4:1],,,,,,,,
{16}5pp6[4:1],,,,4qq3[4:1],,,,,,,,7b-4[2:5],,,,
{16}8-3[1:1],,,,,,,,,,,,,,,,
{16},,,,,,,,,,,,,,,,
{16},,,,,,,,,,,,,,,,
{16}8b-3[8:1]/7-4[8:3],,,,,,,,3b-8[8:1],,,,,,,,
{16}2-4[8:1],,8-6[8:1],,1-5[8:1],,,,1-3[8:1],,7-5[8:1],,8-4[8:1],,,,
{16}8-2[8:1],,6-4[8:1],,7-3[8:1],,,,7^2[4:1],,,,2^5[4:1],,2-5[8:1],,
{16}5^8[4:1],,,,,,,,5^8[4:1],,,,8^3[4:1],,,,
{16}3q5[8:3],,,,8-5[8:1],,,,8-3[8:1],,,,,,,,
{16}7-5[8:1],,1-3[8:1],,8-4[8:1],,,,8-6[8:1],,2-4[8:1],,1-5[8:1],,,,
{16}1-7[8:1],,3-5[8:1],,2-6[8:1],,,,2^7[4:1],,,,7^4[4:1],,7-4[8:1],,
{16}4^1[4:1],,,,,,,,4^1[4:1],,,,1^6[4:1],,,,
{16}6V47[8:3],,,,1-5[8:1],,,,1w5[8:1],,,,,,,,
{16}3-5[8:1]/4-6[8:1],,,,3>5[4:1],,,,5<3[4:1],,,,3qq8[8:3],,,,
{16}7-4[8:1],,,,7>5[4:1],,,,5>7[4:1],,,,7pp3[8:3],,,,
{16}6-4[8:1],,,,6<4[4:1],,,,4>6[4:1],,,,6pp4[8:3],,,,
{16}2-5[8:1],,,,2<4[4:1],,,,4w8[8:1],,,,,,,,
{16}6-4[8:1]/5-3[8:1],,,,6<4[4:1],,,,4>6[4:1],,,,6pp1[8:3],,,,
{16}2-5[8:1],,,,2<4[4:1],,,,4<2[4:1],,,,2qq6[8:3],,,,
{16}3-5[8:1],,,,3>5[4:1],,,,5<3[4:1],,,,3qq4[8:3],,,,
{16}6-4[8:1],,,,6V82[8:1]*-2[8:1],,,,6V48[4:1],,,,8-4[8:1]/6b<3[1:4],,,,
{16},,,,,,,,,,,,,,,,
{16},,,,,,,,,,,,,,,,
{16},,,,,,,,,,,,,,,,
{16},,,,,,,,,,,,,,,,
{16}5qq4[8:3],,,,,,,,6qq5[8:3],,,,,,,,
{16}7qq6[8:3],,,,,,,,8qq7[8:3],,,,,,,,
{16}1qq8[8:3],,,,,,,,2qq1[8:3],,,,,,,,
{16}3qq2[8:3],,,,,,,,4qq3[8:3]*pp8[4:5],,,,,,,,
{16},,,,,,,,,,,,,,,,
{16}1-4[8:1],,,,,,,,
{16}3-1[8:1],,8-6[8:1],,5-3[8:1],,,,5-7[8:1],,8-2[8:1],,3-5[8:1],,,,
{16}3-1[8:1],,8-6[8:1],,5-3[8:1],,,,5<3[2:1],,,,8^3[4:1],,8-4[8:1],,
{16}3^6[4:1],,,,,,,,3^8[4:1],,,,8^5[4:1],,,,
{16}5pp4[8:3],,,,1-4[8:1],,,,1^3[8:1]*^7[8:1],,,,,,,,
{16}6-8[8:1],,1-3[8:1],,4-6[8:1],,,,4-2[8:1],,1-7[8:1],,6-4[8:1],,,,
{16}6-8[8:1],,1-3[8:1],,4-6[8:1],,,,4>6[2:1],,,,1^6[4:1],,1-5[8:1],,
{16}6^3[4:1],,,,,,,,6^1[4:1],,,,1^4[4:1],,,,
{16}4bz8[8:3],,,,1b-5[8:1],,,,1bw5[8:1],,,,,,,,
{16}7-4[8:1],,4-1[8:1],,1-5[8:1],,5-8[8:1],,,,3qq1[8:1],,1^4[8:1]*^6[8:1],,,,
{16},,,,3-8[8:1]/7-4[8:1],,,,7-5[8:1]*-3[8:1],,,,7^2[8:1],,,,
{16}2^7[8:1],,,,6-1[8:1]/2-5[8:1],,,,2-4[8:1]*-6[8:1],,,,2^7[8:1],,,,
{16}6<2[6:1],,,,3>6[16:3],,,,4-1[8:1],,,,4b,,,,
{16}2-5[8:1],,5-8[8:1],,8-4[8:1],,4-1[8:1],,,,6pp8[8:1],,8^5[8:1]*^3[8:1],,,,
{16},,,,6-1[8:1]/2-5[8:1],,,,2V48[4:1],,,,8w4[8:1],,,,
{16},,,,3-8[8:1]/7-4[8:1],,,,7V51[4:1],,,,1V38[4:1],,,,
{16}8bqq4[8:3],,,,4b-2[8:1],,,,4bw8[8:1],,,,,,,,
{16}2>8[8:3],,,,1-5[8:1],,,,1>7[8:3],,,,8-4[8:1],,,,
{16}8>6[8:3],,,,7-3[8:1],,,,7w3[8:1],,,,,,,,
{16}7<1[8:3],,,,8-4[8:1],,,,8<2[8:3],,,,1-5[8:1],,,,
{16}1<3[8:3],,,,2-6[8:1],,,,2qq5[8:3],,,,,,,,
{16}6b,,,,,,,,,,,,,,,,
{16},,,,,,,,,,,,,,,,
{16},,,,,,,,,,,,,,,,
{16},,,,,,,,,,,,,,,,
{16},,,,,,,,,,,,,,,,
{16},,,,,,,,,,,,,,,,
{16},,,,,,,,,,,,,,,,
{16},,,,,,,,,,,,,,,,
