&title=ディスコルディア
&artist=ぺのれり vs. BEMANI Sound Team ”HuΣeR”
&first=0
&des=Kanata
&clock_count=4
&lv_5=14+
&inote_5=(280)
{1},,
{4}5<2<5[4:19],,,,2,,3,,4h[4:6],,,,,,,,
{2}4,3,2,3/4,5/1h[1:1],,{8}8,,,2/7,,,3/6,,
{4}5/4>7>4[4:17],,,,7,,6,,5h[4:6],,,,,,,,
{2}6h[1:1],,
(250)
{2}7h[4:4],,
(200)
{2}8h[1:1],,
(180)
{4}1h[4:3],,,7,
(280)
{8}6-4v2[2:1],,2,2,,3,3h[4:1],,1h[4:1],,
{8}3,1,2,7,8,6,5,5,7,7,
{8}3-5v7[2:1],,7,7,,6,6h[4:1],,8h[4:1],,
{8}7,1,8,2,4,3,2/5h[4:1],,{16}E3,B3,B4,E5,
{8}6x,6,4,7,7,6,8,8,2,5,
{8}3,3,4,2,2,3,1,1,7,4,
{8}6,5,6,4,7,3,8,2,1,2,
{8}4,3,4,2,5,{24}E3,E4,E5,E6,E7,E8,E1,E2,E3,{4}C,
{8}2bx/8bxV64[2:1],,4,4,,3,3,,2,6,
{8}1V35[2:1],,5,5,,6,6,,7,3,
{8}8-4-6[2:1],,4,4,,3,3,,2,6,
{8}1-5-3[2:1],,5,5,,6,6,,7,3,
{8}8-4[6:1],,8,3,,2,5,3,3,4,
{8}2-6[6:1],,2,8,,7,5,8,8,3,
{8}1-6[6:1],,4,4h[4:1],,5,5h[4:1],,2h[4:1],,
{8}1,2,8,3,7,5,6>3[4:1],,3<1[4:3],,
{4}E3f,,,,,
{8}2/8V61[2:1],,4,4,,3,3,,2,1,
{8}8/3-8-2[2:1],,6,6,,5,5,,3,4,
{8}2/5-3-6[2:1],,2,2,,1,1,,8,7,
{8}1-5[6:1],,1,6,,7,4,6,6,5,
{8}7-3[6:1],,7,1,,2,4,1,1,6,
{8}8-3[6:1],,5,5h[4:1],,4,4h[4:1],,7h[4:1],,
{8}5,6,1,4,2,8,4,6,8,4,2w6[6:1],,
{384}2b<3<2[4:9],Cf,,,,,,,,,,,,,,,,,,,,,,,,,,,,,,,,,,,,,,,,,,,,,,,,,,,,,,,,,,,,,,,,,,,,,,,,,,,,,,,,,,,,,,,,,,,,,,,{4},,,,,
{4},,,,,,
{8}6,5,7>6>7[4:8],4,,,,,,,,,
{4},,,,,,
{8}3,4,2<3<2[4:8],5,,,,,,,,,
{4},,,,,,
{8}6,5,7>6[4:4],4,,,,,,,,,
{4}2h[4:4],,,{24}6bx,E6,B5f,B4,E4,A3,,,,,,,,,,,,,
{8}1b/7b,,2/4,,6,5,7,3,8,8,2,2,
{16}7,6,5,4,{8}2,2,1,3,7,4,6,5,6,4,
{4}8,7/5,{8}3,4,2,6,{16}1,,7,6,5,4,1,,
{16}1,2,3,4,{8}7,7,8,6,2,5,2,4,3,,
{4}3hx[4:1]/5hx[4:1],{8},2,4,3,4hx[4:1]/3hx[4:1],,,5,4,6,
{8}5hx[4:1]/6hx[4:1],,,4,6,2,2hx[4:1]/5hx[4:1],,,6,3,8,
{8}8hx[4:1]/4hx[4:1],,,4,,4/7,,2/5,,{16}6/4,,,5/3,,,
{6}6/5,6/5,6/5,3/4,3/4,3/4,{8}2,5,8,7,
{384}1,,,,,,,,,,,,,,,,,,,,,,,,,,,,,,,,,,,,,,,
6,,,,,,,,,,,,,,,,,,,,,,,,,,,,,,,,,,,,,,,
2,,,,,,,,,,,,,,,,,,,,,,,,,,,,,,,,,,,,,,
5,,,,,,,,,,,,,,,,,,,,,,,,,,,,,,,,,,,,,,,
3,,,,,,,,,,,,,,,,,,,,,,,,,,,,,,,,,,,,,,,
{12}4,3,4,3,4-8[6:1],3-7b[12:1],
{384}4b,Cf,,,,,,,,,,,,,,,,,,,,,,,,,,,,,,,,,,,,,,,,,,,,,,,,,,,,,,,,,,,,,,,,,,,,,,,,,,,,,,,,,,,,,,,,,,,,,,
{4},,,
,,,,
{12}3/6,2,1,8,7,6,3,2,1,8,7,6,
{8}4b-1[4:1]/5b-8[4:1],,,,,,,,
{8}3b/6b,,2-4[8:1],4V28[4:1],2,6,6,,5,5,8x,6,
{16}2,3,{8}4,6<1[6:1],5,6,,2x,2,1,3,4<7[6:1],2,
{8}4x,,1,2x/8x,,3,2x/4x,,6,5,7,4,
{8}7,8,6,2,5,3,4,3,5,2,6,1,
{8}7h[4:1],,,8h[4:1]/6h[4:1],,,{12}1,2,3,8,1,2,7,8,1,
{4}2h[4:1]/6,{12}7,6,5,8,7,6,1,8,7,2,3,4,1,2,3,
{8}4/8,4<7[6:1]/8>3[6:1],,4/8,,,{16}1x/2x,3/8,4/7,5/6,{8},,4b/8b,,
{8}5/1,5>2[6:1]/1<6[6:1],,5/1,,,{16}8x/7x,6/1,5/2,4/3,{8},,6-3[6:1]/1-4[6:1],,
{8}6b/1b/E4f,,,,7,7,5,6,{16}1,2,3,4,{8}5/6,,
{16}7-1[8:1],,{8}1-7-4[4:1],7,2,2,,3x,3,5,1,8>3[6:1],6,
{8}8x,,5,6x/4x,,7,6x/8x,,2,1,3,4,
{4}2/5,6,4/7,8,1/6,2,
{8}7,8-4[6:1],,2/8,,,{12}2,5,3,6,4,7,1,,,
{8}2,1-5[6:1],,7/1,,,{12}7,4,6,3,5,2,8,,,
{4}3,4/5,3/4,6/7,2/8,4/6,
{8}2,2,4,4,3,3,5,5,4,6,5,7,
{8}3,8,2,1,{16}3,4,5,6,2,3,4,5,1,2,3,4,8,1,2,3,
{4}8b>6>1[4:19],,,,6,,7,,8h[4:6],,,,,,,,
{2}8,7,6,{8}3/4,,2,1,{2}3/8h[1:1],4,{8}1,,,2/7,,,3/6,,
{4}5/4>7>4[4:17],,,,7,,6,,5h[4:6],,,,,,,,
{6}6,,6,,6,,
{6}2/6,,2,,2,,
{6}3/5,4,5,4/6,5,6,
{8}1h[4:3],,,8,,,7,,
{8}3,3,4,2,5,,5/6,,7/8,,
{4}1-3[6:1],5,4-8[6:1],7,6h[4:1],
{8}1,1,7,2,2,8,2,5,3,4,
{8}1,6,8,7,1,7,2,6,{12}4,5,3,{8}4,2,
{8}8b,1,7,3,6,4,7,5,8h[8:3],{16}1,2,3,4,5,,
{8}7b,8,6,2,5,3,6,4,7h[8:3],{16}8,1,2,3,4,,
{8}6b,5,7,1,6,3,5,4,6h[8:3],{16}8,1,2,3,4,,
{8}7b,4,5,2,3,1,7,5,6,1b,,,
{16}7/2b,6,5,4,3,2,1,8,7/3b,6,5,4,
{16}3,2,1/5b,8,7,6,5,4,3/8b,2,1,8,
{16}7,6,5/1b,4,3,2,1,8,7/3b,6,5,4,
{16}3,2,1/5b,8,7,6,5,4,3/8b,2,1,8,
{16}7,6,5/1b,4,3,2,1,8,3b/7w3b[6:1],,,,
{4}7b,,,
{32}1,,,8,,,1,,,8,,,1,,,8,,,1,,,8,,,
{12}2,7,3,6,4,5,4,,,
{12}1/8,,,3,4,5,6,7,8,1,8,7,6,5,4,3,2,1,8,,,
{1}1bh[4:3]/6bh[4:3],,
