&title=GOLD RUSH
&artist=DJ YOSHITAKA-G feat.Michael a la mode
&first=0
&des=Tail_R
&lv_5=14
&inote_5=(162.001)
{1},{32},,,,,,,,,,,,
(162)
{16}2h[2:1]/6,,,5,,,7h[2:1],,,,4,,3,,2,,
{16}7h[2:1]/3,,,4,,,2h[2:1],,,,6,,7,,8,,
{16}2h[4:1]/6,,,5,5,,2h[2:1]/7,,6,,5,,6,,7,,
{16}7h[4:1]/3,,,4,4,,7h[2:1]/2,,3,,4,,3,,2,,
{16}1h[4:1]/7,,,6,6,,1h[2:1]/8,,7,,6,,7,,8,,
{16}8h[4:1]/2,,,3,3,,8h[2:1]/1,,2,,3,,2,,1,,
{8}6h[8:3]/4,3,2,1,6h[8:3]/4,3,2,1,
{16}6,4,6,3,6,2,6,1,{32}6,5,4,3,2,1,8,7,6,5,4,3,2,1,8,7,
{1}6b/2h[1:1],
{16}6,,3/5,,2,4,,1/7,,,5/6,,3,4,,2/1,
{16},,5/7,,2,4,,8h[16:7]/1,,,2,,6,,4,,
{16}2b-5[8:1]/1b,,8/7,,6,6,,8,8-4[8:1],,1/2,,3,3,,2,
{16}2-7[8:1],,3/4,,5,5,,6,6-1[8:1],,3-6[8:1],,6,,3,,
{16}8b-4[8:1],,6/4,,3,3,,2,2-6[8:1],,8/1,,7,7,,5,
{16}5-8[8:1],,3/4,,2,2,,1,7,5,6,2,1/3,,4/5,,
{16}7b-4[8:1]/8b,,1/2,,3,3,,1,1-5[8:1],,8/7,,6,6,,7,
{16}7-2[8:1],,6/5,,4,4,,3,3-8[8:1],,6-3[8:1],,3,,6,,
{16}1b,,4/6,,2,4,8,6,5b/7b,,1/3,,7,3,1,5,
{16}6b/4b,,2/8,,3,4,8,7,2b-6[8:1],8,4,6,2,,7,,
{16}8b-5[8:1]/5,,1/3,,2,2,,3,3-7[8:1],,4/6,,5,5,,6,
{16}6-1[8:1],,4/5,,3,3,,2,2-5[8:1],,7-2[8:1],,2,,7,,
{16}4b-8[8:1],,5/7,,6,6,,7,7-4[8:1],,1/8,,2,2,,3,
{16}3-7[8:1],,2/8,,6,6,,5,8,6,1,7,8/6,,4/5,,
{16}1b-4[8:1],,8/6,,7,7,,6,6-2[8:1],,5/3,,4,4,,3,
{16}3-8[8:1],,5/4,,6,6,,7,7-4[8:1],,2-7[8:1],,7,,2,,
{16}5b,,8/2,,6,8,4,2,1b/3b,,5/7,,3,7,5,1,
{16}2b/8b,,6/4,,7,8,4,3,{32}6b,7,8,1,2,3,4,5,6,7,8,1,2,3,4,5,
{1}6b/2bpp5[4:3],
{8}8qq5[4:3],8,,,,,,,
{1}1pp5[4:3],
{8}7p4[2:1],7,,3,,2,2,2,
{16}1b,,,2/8,,,3/7-3[8:1],,,,4,,4,,4h[16:5],,
{16}1b,,,6,,,3/7-4[8:1],,,,3,,3,,3,,
{16}2b,,,3/1,,,8-4[8:1]/4,,,,2,,2,,2,,
{16}3b,,,4/2,,,5-1[8:1]/1,,,,3,,3,,3,,
{16}4b,,,3,5,,2/6,,7h[4:1],,1,,4h[4:1],,6,,
{16}5b,,,6,4,,7/3,,6h[4:1],,8,,4h[4:1],,7,,
{16}6b,,,5/7,,,4-8[8:1]/8,,,,6,,6,,6,,
{16}7b,,,6/8,,,1-5[8:1]/5,,,,7,,7,,7,,
{16}8b,,,7,1,,6/2,,3/5,,1,,4/6,,8,,
{16}8b/1b,,,2,7,,6/5,,4/2,,8,,7/5,,1,,
{16}8b/2b,,4,7,4,7,4,7,3b/8b,,5,7,5,7,5,7,
{24}8b/4b,1,2,3,4,5,7,8,1,2,3,4,{32}5b/8b,7,6,5,4,3,2,1,8,7,6,5,4,3,2,1,
{1}8b/6b,
{16}2/4,,7/8,,4,6,,1/3,,,5/6,,8,7,,3/5,
{16},,1/8,,5,7,,3,4,1,8,5,6,,1/3,,
{16}2b-5[8:1]/5b,,3,4,2,6,,7,7-3[8:1],,8,1,7,2,,1,
{16}1-6[8:1],,2,3,1,4,,5,5-2[8:1],,8-5[8:1],8,5,,8,,
{16}3b-8[8:1],,4,5,3,6,,7,7-2[8:1],,8,6,7,5,,4,
{16}4-8[8:1],,3,5,4,6,,7,1,3,2,4,3/5,,1/8,,
{16}7b-4[8:1]/4b,,6,5,7,3,,2,2-6[8:1],,1,8,2,7,,8,
{16}8-3[8:1],,7,6,8,5,,4,4-7[8:1],,1-4[8:1],1,4,,1,,
{24}6b,7,8,{16}1/5,,3,1,4,5,{24}2b,3,4,{16}5/1,,6,8,4,5,
{24}3b,2,1,{16}8/4,,7,6,7,6,3b,2,4,5,4/6,,1/8,,
{16}2bv5[8:1],5,3,4,2,6,,7,7v4[8:1],4,6,5,7,2,,1,
{16}1v4[8:1],4,2,3,1,5,,6,{24}3,2,1,8/7,6,5,4/8,1,2,3/7b,,,
{16}3bv8[8:1],8,2,1,3,7,,6,6v3[8:1],3,5,4,6,2,,1,
{16}1v6[8:1],6,8,7,1,7,,8,5,6,4,7,6/8,,4/5,,
{16}7bv4[8:1],4,6,5,7,3,,2,2v5[8:1],5,3,4,2,7,,8,
{16}8v5[8:1],5,7,6,8,4,,3,{24}6,7,8,1/2,3,4,5/1,8,7,6/2b,,,
{32}8b,7,6,5,{16}4/3,,2,8,3,1,{32}2b,3,4,5,{16}6/7,,5,3,4,2,
{32}5b,6,7,8,1,2,3,4,5,6,7,8,1,2,3,4,5/1b,8,7,6,5,4,3,2,1,8,7,6,5,4,3,2,
{1}1b<5[4:7]/5bv2[4:7],
