&title=終わらない道(Feat.初音ミク&歌愛ユキ)
&artist=Vatica; GasaiTomoya_Music
&first=0.165
&des=HarKIn
&clock_count=4
&des_5=HarKIn
&des_4=ATP_
&lv_4=13
&lv_5=14
&inote_4=(200)
{1},,,
{4}5h[4:3],,,,
{4},,4h[4:3],,
{4},,,,
{4}3h[4:3],,,,
{4},,2h[4:3],,
{4},,,,
{4}E7,E6,E5,3h[2:1],
{4},,B7,B6,
{4}B5,2h[2:1],,,
{4}8,7,6,2,
{4}3,4<2[1:1],,,
{4},,,8b,
{4}7hx[1:1]/1hx[4:1],,2h[4:1],,
{4}3h[4:1],,4/6,7/5,
{4}4h[1:1]/6h[4:1],,7h[4:1],,
{8}8,7x,7x,7x,4hx[4:1],,,,
{4}5hx[1:1]/3hx[4:1],,2h[4:1],,
{4}1h[4:1],,8/6,7/1,
{4}2h[1:1]/8h[4:1],,7h[4:1],,
{8}6,5x,4x,3x,7hx[8:1],,1h[8:1],,
{4}8b-5[4:1],,4-1[4:1],,
{4}7^4[4:1],,1,2,
{4}5-8[4:1],,3-6[4:1],,
{8}8,8x,8x,8x,1x/7x,,6x/2x,,
{4}5/3-8[4:1],,7-4[4:1],,
{4}1-5[4:1],,8,7,
{4}4-1[4:1],,8^5[4:1],,
{4}2-6[4:1],,8b,,
{4}E1/Ch[2:3]/E5,,,,
{1},,,,,
{24}E2,C,E6,,,,{4},4h[2:1],,
{4}5bxs1[4:5],,,,
{4},,,,
{8}8b/2b,,7/1,,3,4,5/6,,
{8}5,,8/2,1,,8,7/1,,
{8}5,,1/2,,6,5,4/3,,
{8}6,,5/3,4,,5,6/4,,
{8}7b/3b,,6/2,,7,1,8/2,,
{8}6,,3,4/5,,7,8/1,,
{8}4,,7/1,,6,4,5/3,,
{16}E2,B2,B3,E4,E8,B7,B6,E6,E3,B3,B4,E5,E1,B8,B7,E7,
{8}2x,,3/6,4,5,6,7,8,
{8}1x,,3/4,5,6,3,5,4,
{8}6x/5x,7,3,4,6,5,4,3,
{8}6x/4x,,5/3,4,,5,6/4,7,
{8}8/1x,2,3,4,7,6,5,4,
{8}5x/3x,,6/2,1,,7/8,6,5,
{8}4x/2x,3,4,5,7,6,5,4,
{1}C,
{4}E3`B3,,,,
{4}E7`B6,,,,
{4}E1`B1,,,,
{4}B5`E5,,,,
{4}C`B2,,,,
{4}C`B4,,,,
{4}C`B6,,,,
{4}Ch[1:1],,,,
{4}1x,,,,
{4}7/3h[32:1],,,,
{4}4,,4,,
{4}6h[32:1]/2,,,1,
{4}1x,,2x,,
{4}3x/6hx[32:1],,4x,,
{4}6x,5x,3x,4x,
{4}5hx[2:1]/3hx[2:1],,,,
{4}B1/B2/E2f/A1/A2/D2,,{8}B7/B6/B5/B4/E6,,,Chf[8:5],
{1},
{4}B8/B7/E8/A8/A7/D8,,{8}B2/B3/B4/B5/E4,,,Chf[8:5],
{8},,,,,,,C,
{8}B7/B6/E7/E8/E6,,,,B2/B3/E3/E2/E4,,,Chf[8:5],
{8},,,,,,,C,
{8}B7/B8/B1/B2/E1,,,,B6/B5/B4/B3/E5,,,8hx[2:1]/1hx[8:3],
{8},,,,{16}1,8,1,8,1,8,1,8,
{8}1x,,2-4[8:1],,8,,7-5[8:1],,
{4}2,1-3[8:1],7,8-5[8:1],
{4}3,4-1[8:1],6,5^8[8:1],
{4}2,3,{16}4,,E8,B7,B6,B5,E5,,
{4}1bh[4:3],,,,
{4}6bh[4:3]/3bh[4:3],,,,
{16}4hx[32:1],5hx[32:1],4hx[32:1],5hx[32:1],4hx[32:1],5hx[32:1],4hx[32:1],5hx[32:1],4hx[32:1],5hx[32:1],4hx[32:1],5hx[32:1],4hx[32:1],5hx[32:1],4hx[32:1],5hx[32:1],
{8}4x-8[8:1],,8w4[8:1],,,,C,,
{8}6b/2b,,8/1,7,8/1,2,8/1,7,
{8}8/1,2,8/1,7,8/1,2,8x/1x,7x/2x,
{8}6b/3b,,5/4,3,5/4,6,5/4,3,
{8}5/4,6,5/4,3,5x/4x,5x/4x,6xv1[8:1]/3xv8[8:1],,,,
{8}7x/2x,6,5/2,3,4/7,6,
{8}5/2,3,4/7,6,5/2,3,4x/7x,6x/3x,
{8}5b/2b,,4/3h[16:1],5,4h[16:1]/3,2,4/3h[16:1],5,
{8}4hx[16:1]/3x,2hx[16:1],4x/3hx[16:1],5hx[16:1],4hx[16:1]/3x,2hx[16:1],4x/3hx[16:1],5hx[16:1],
{8}4x-8[8:1],,7b,,6,1,6,2,
{8}6,3,7,4,7,5,7,4,
{8}6b/3b,,2,5,2,6,2,7,
{8}3,8,3,1,3,8,3-6[8:1],,
{8}7b,,7,5,7,4,7,3,
{8}7,2,7,1,6,2,6,3,
{8}5b/4b,,3,5,3,6,3,7,
{8}3,8,2,7,1^4[8:1]*^6[8:1],,,,
{4}5bx,1h[8:1]/2h[8:1],6h[8:1]/3h[8:1],7h[8:1]/8h[8:1],
{4}5h[8:1]/4h[8:1],6/3,7z3[4:1],,
{4}1b,3h[8:1]/4h[8:1],6h[8:1]/8h[8:1],4h[8:1]/3h[8:1],
{4}8h[8:1]/1h[8:1],7/2^5[8:1],8-4[8:1],,
{4}2b,6h[8:1]/5h[8:1],4h[8:1]/2h[8:1],6h[8:1]/5h[8:1],
{4}8h[8:1]/2h[8:1],7v4[8:1]/3,2v5[8:1],,
{4}7b,5h[8:1]/3h[8:1],7h[8:1]/8h[8:1],1h[8:1]/2h[8:1],
{4}6h[8:1]/4h[8:1],5h[8:1]/3h[8:1],7h[8:1]/4h[8:1],5h[8:1]/2h[8:1],
{4}6bx/3bx,8x-3[8:1]/1x,2x-5[8:1],7x-4[8:1],
{4}1x>6[4:1],,7h[8:1],7h[8:1],
{4}1x-4[8:1],5x-8[8:1],2x-7[8:1],6x-3[8:1],
{4}1xp8[4:1],,5h[12:1],5h[12:1],
{4}3x-8[8:1],6x-1[8:1],2x-5[8:1],7x-4[8:1],
{4}3xp7[8:1],,6h[12:1],5h[12:1],
{4}4x-1[8:1],8x-5[8:1],2x-7[8:1],6x,
{8}6x,5x,3x,4x,C,,{16}1b,8b,1b,8b,
{8}1b,,8/2,,7/1,,6/8,1,
{8}2/4,,5/3,,6/4,,7/3,2,
{8}8/1,7,6,5,4/2,3,4,5,
{8}6x/4x,7,6x/4x,3,6x/4x,7,8/2h[4:1],,
{8}7,,1/2,,3/4,,5/6,,
{8}7/8,1,2,3,8/4,7,6,5,
{8}4x/3x,2,5x/3x,,6x/5x,7,6x/4x,,
{8}7/3,6/2,7/8,5/4,8h[4:1]/2,,{16}1bx,2bx,3bx,4bx,
{4}5x,5,5,5,
{4}4,4,4,4/5,
{4}6/4,6/3,6/2,6/1,
{4}2/6,2/7,2v7[8:1]/8,,
{16}5x,4,5,4,5,4,5,4,5,4,5,4,5hx[8:1],,,,
{16}3x,4,3,4,3,4,3,4,3,4,3,4,3bx,,,,
{16}8x,1,8,1,8,1,8,1,8,1,8,1,8,1,8,1,
{16}8xh[32:1],1xh[32:1],8xh[32:1],1xh[32:1],8xh[32:1],1xh[32:1],8xh[32:1],1xh[32:1],8xh[32:1],1xh[32:1],8xh[32:1],1xh[32:1],8x-4b[8:1],,,,
{4},,C,,
{4}E5,,E7,,
{4}E1,,E3,,
{4}E5,,E7,,
{4}C,,B2,,
{4}B4,,B6,,
{4}B8,,C,,
{4}C,,C,,
{4}4h[2:1],,E6,,
{4}4h[2:1],,E7,,
{4}3h[2:1],,E7,,
{4}2h[2:1],,E6,,
{4}1,2,3,4,
{4}5h[1:1],,2,3,
{4}4h[2:1],,6h[2:1],,
{4}3h[2:1],,5h[2:1],,
{1}1h[1:2],,,
E
&inote_5=(200)
{1},,
{4},6,5,4,
{4}3h[2:1],,7,4,
{4}6,3,5h[4:1],2h[4:1],
{4}4h[4:1],3h[2:1],,5,
{4}5h[2:1],,4,4h[2:1],
{4},6,2h[2:1],,
{4}7,1h[2:1],,,
{4}8,7,6^3[2:1],1h[4:1],
{4},,2,3,
{4}4-1[2:1],5h[4:1],,,
{4}7,6,5,2,
{4}3/E8,4/E7,{8}5x,5,4,4,
{8}6,6,1x-5[8:1],,1w5b[8:1],,,,
{8}3bhx[4:1],,5,,3h[4:1],,6,,
{8}3h[4:1],7,6,5,3h[4:1],,7,,
{8}6bhx[4:1],,4,,6h[4:1],,3,,
{8}6h[4:1],{16}E2,B1,B8,,C,,6h[4:1],,,,4h[4:1],,,,
{8}1hx[4:1],,3,,8h[4:1],,4,4,
{8}7h[4:1],2,3,4,6h[4:1],,2h[4:1],,
{8}5h[4:1],,3,,4h[4:1],7,7,7,
{16}3h[4:1],,E8,B7,B6,,C,,{8}1bh[4:1],5,5-1[8:1],5,
{8}2x-4[12:1],,8,,2-8[12:1],6,6,5,
{8}2-4[12:1],7,6,5,2-6[8:1],,7-1[12:1],,
{8}7-5[12:1],,1x,,7-1[12:1],3,3,4,
{16}7-5[12:1],,E1,E2,E3,,C,,{8}7-3[8:1],,1-3[12:1],,
{8}1x-7[12:1],,5,,1-3[12:1],6,6,5,
{8}1-7[12:1],6,5,4,1^4[8:1],,6-2[8:1],,
{8}6x,,1-4[8:1],8,1,7,6,5,
{16}4/3,,E2,B1,B8,,C,,{8}5hx[4:1]/4hx[4:1],,,,
{1}5b/4b>5[4:23],
{1},
{1},
{1},
{4},,E2,E3,
{4}E4,,E3,E4,
{4}E5,,E4,E5,
{4}E6/2xs6[4:3],,,,
{4},,C,,
{8}8xV64[4:1],,8/3,,2V48[4:1],1,2/5,,
{8}7-3[8:1],,7/1,2,,2,3/5-1[8:1],,
{8}2V46[4:1],,2/8,,8,7,6/1-5[8:1],,
{8}5-1[8:1],,7V53[4:1],,7,1,2V84[4:1],,
{8}5x-7[12:1],,5,,2,3,4/7,,
{12}1x,2,3,7,6,5,2,3,4,8,7,6,
{8}3xV51[4:1],,3/7,6,,6,5/1,,
{12}6x,7,8,3,2,1,5,6,7,4,3,2,
{8}8x-4[8:1],4-8[8:1],8,1,2,3,4V28[4:1]/7,6,
{8}5x,{16}A2,B1,A8,,A7,B6,A5,,{8}1-5[8:1],7V53[4:1],1x,
{8}7x,,1,2,{16}E6,B5,B4,,{8}2,3,
{8}5x,{16}2,3,4,,6,,{8}2-6[8:1],6-2[8:1],2V48[4:1],,
{8}7x,7,6V82[4:1],6x,3,4,5x,4,
{16}3x,,7,6,5,,3,,{8}4,{16}8,7,{8}6V84[4:1],3,
{8}4xV62[4:1],3,2,1,8x,3x,4,5,
{1}6/2h[2:1],
{4}5h[2:1],,E3,E4,
{4}E5/7,,E1,E8,
{4}E7/3,E6,E5,E4,
{4}E3/6,,B7,B3,
{4}C/1,,E6,E2,
{4}E3/8,E4,E8,E7,
{4}3,4,5,6^1[2:1],
{4}2hx[1:1],,,,
{4}8h[2:1],,1,2-5[4:1],
{4}E7`B7,,6,5-8[4:1],
{4}B1/B2,3,B4/B5,6v3[4:1],
{4}B1`E2,,2,1-4[4:1]/B8/B7,
{4}B6/B5,,C/B2,4^1[4:1],
{4}C`B6,5,E8/B8,2-5[4:1],
{4}5-8[4:1],8-3[4:1],7x,6xv1[4:1],
{4}4hx[2:1],,,,
{24}1b,B1,C,B5,,,{8}7,6,{24}5x/2b,B2,C,B6,,,{8},3b/7b-2-5-8[8:3],
{8},,,,B1/B2/E2f,,,,
{24}8b,B8,C,B4,,,{8}2,3,{24}4x/7b,B7,C,B3,,,{8},6b/2b-7-4-1[8:3]*-7-4-1[8:3],
{8},,,,E8f/B7/B8/A7/A8/D8,,,2,
{24}6b/2,B6,C,B2,,,{8}3,4,{24}5/2b,B2,C,B6,,,{8},5b-8^3-6[8:3]/3b,
{8},,,,1bx`B1f,,6bx`B6,2x,
{24}3b,B3,C,B7,,,{8}5,6,{24}7b/1b,B7,C,B3,,,{8},3hx[4:1]/5hx[8:3],
{16},,,,,,3,,6,2,6,2,6-2[8:1],2,6,2,
{8}6x,,3,4,5x/8x,,7,6,
{8}5x/2x,,1,2,3x/5x,6,7x/4x,,
{8}1/2,,8,7,6/3,,2,3,
{8}4/7,6,5/2,3,6x/4x,{16}5xh,3xh,6xh,4xh,5xh,3xh,
{16}6x,E2,E6,E3,E7,E4,E8,B2,B6,E1,E5,B3,C,,,,
{16}2x,7,1,8,2,7,1,8,2-6b[8:1],7,1,8,2x,,,,
{32}8x,7x,6x,5x,4x,3x,2x,1x,8x,7x,6x,5x,4x,3x,2x,1x,8x,7x,6x,5x,4x,3x,2x,1x,8x,7x,6x,5x,4x,3x,2x,1x,
{8}8x/4x,B5,{16}B7,C,B3,,{16}1x-5[8:1],1x,1x,1x,1x,,,,
{16}6b/4b,,,,4,5,4,5,4,5,4,5,4,5,4,5,
{16}4,5,4,5,4,5,4,5,4,5,4,5,3x,6x,2x,7x,
{16}1bx,,,,4x,5,4,5,4,5,4,5,4,5,4,5,
{16}4h,5h,4h,5h,4h,5h,4h,5h,4-8[8:1],5h,4h,5h,4x,,,,
{16}7b/1b,,,,1,8,1,8,1,8,1,8,1,8,1,8,
{16}1,8,1,8,1,8,1,8,1,8,1,8,2x,7x,3x,6x,
{16}4bx,,,,1x,8,1,8,1,8,1,8,1,8,1,8,
{16}1,8,2,7,1,8,2,7,1,8,2,7,1-5[8:1],8,2,7,
{16}1bx^4[8:1]*^6[8:1],,,,,,,,5x,,3,4,3-5[12:1],,5-1[8:1],,
{8}6,7,8-4[8:1],2,{16}8,,1,2,3-7[8:1],,5,,
{16}3x,,,,6,2,7,3,8-2[12:1],,2-6[8:1],3,4,,4,,
{16}3x,,B8,B7,3,E3,B2,,{32}7b,6,5,4,,,,,2b-6[8:1],3,4,5,,,,,
{16}8b,,,,7,,2,1,2v7[8:1],,7-3[8:1],6,5,,,,
{16}8-6[12:1],,4,,8-4[8:1],,2,3,8V61[4:1],,1,2,3-5[12:1],,,,
{16}3b,,,,7,3,7,3,6,2,6,2,5,1,5,1,
{16}6,2,7,3,8-4b[8:1],4,7,3,8xv2[8:1]*v6[8:1],,,,,,,,
{8}7b/1b-4[8:1],,5-8[8:1],,{24}2-6[8:1],,,,,,{8}7-3[8:1],,
{8}1-5[8:1]*-3[12:1],,1,,{12}8x,2,2,7,{24}E3,B3,B4,E5,
{8}6xV48[4:1],,8V26[4:1],,3,,4-8[8:1],,
{8}4^1[8:1]*^7[8:1],,,,{12}8xw4[8:1],8x,8x,,,,
{8}8bx-5[8:1],,2-7[8:1],,{24}6-3[8:1],,,,,,{8}1-5[8:1],,
{8}8-6[12:1]*-4[8:1],,,,{12}3,5,5,2,5,5,
{8}1xV38[4:1],,5V74[4:1],,5,,2-8[12:1],,
{16}7,6,5,4,2,3,4,5,8,7,6,5,1,2,3,4,
{8}7xv2[8:1]/5xv2[8:1],,7x-1[12:1],,{12}7x-5[12:1],3,3,7x-1[12:1],4,4,
{12}7xp5[4:1],3,3,7x,,,1x,2,3,6,7,8,
{8}3-5[12:1],,7-1[12:1],,{12}7v4[8:1],3,3,7x,2,2,
{12}6^3[8:1],1,1,{8}6x,,{16}B1,C,B5,,7h[8:1],,,,
{8}2xv7[8:1],,2x-8[12:1],,{12}2x-4[12:1],6,6,2x-8[12:1],5,5,
{12}2xq4[4:1],6,6,2x,,,8x,7,6,3,2,1,
{12}7x-5[12:1],,,7v2[8:1],3,3,7x-1[12:1],4,4,7x,3,3,
{8}E7/E6/B6,B1/B2/E2,B7/B8/E8,E5/B4/E4,Ch[8:1],,{16}1b-5[8:1],1bx,1bx,1bx,
{8}1bx,,6x/4x,{16}3,5,4,,6,4,5,,4x/3x,,
{16}1x,8,7,6,8,7,6,5,2x,3,4,5,1,2,3,4,
{16}1x/5x,,2,,3/7,,6,,5/3,,4,2,5,3,6,4,
{16}7x,,2,1,8,7,6,5,4xv1[8:1]/8xv5[8:1],,7x/3x,,,,,,
{8}2x^5[8:1],7,2-6[8:1],{16}8,7,2xV48[4:1],,7,,2x,,6,,
{8}5x-1[8:1],1v6[8:1],2,3,4-8[8:1],4,7x-5[12:1],7,
{8}7x-3[8:1],2,7x^5[12:1]/1x-5[8:1],,7/1^4[8:1],,1,8,
{8}7x,6/2,5/1,4/8,7/3h[4:1],,{16}8bx,1bx,2bx,3bx,
{16}4x,,6,5,6,,3,4,3,,6,5,7,,3,4,
{16}2,,6,5,6,,3,4,3,,5,,6/4,,5,3,
{16}4x,,5x,,7/3,,8/2,,7x/1x,,6/2,,5,3,6,4,
{16}7,,2,3,4x/8x,7,6,5,4x/2xv3[8:1],,1x,,,,,,
{16}5,4,5,4,5,4,5,4,5v7[8:1],4,5,4,5,,,,
{16}1,8,1,8,1,8,1,8,1-5[8:1],8,1,8,1,,,,
{16}8,4,7,3,6,2,5,1,6,2,7,3,8,4,7,3,
{24}8xh[48:1],7xh[48:1],6xh[48:1],1xh[48:1],2xh[48:1],3xh[48:1],8xh[48:1],7xh[48:1],6xh[48:1],1xh[48:1],2xh[48:1],3xh[48:1],8xh[48:1],7xh[48:1],6xh[48:1],1xh[48:1],2xh[48:1],3xh[48:1],8xw4b[8:1],,,,,,
{8},,,,E8,,4,,
{8}E7/3,,,,E6/2,,,,
{4}C/3,4,E2/5,6,
{4}5h[2:1]/E3,,E4,,
{4}E8/4,4,C/3,3,
{4}E2/6,6,E1/5,5qq8[1:1],
{4}E2,,E2,,
{4}E3,,E3,,
{4}6h[2:1]/4,,2,3,
{4}4/E7,,5/E3,,
{4}6/1h[2:1],,7,6,
{4}5/B1,,3/B7,,
{4}2,3,4,5^8[2:1],
{4}4h[2:1],,,3,
{4}8-5[4:1],,3-6[4:1],,
{4}7-2[4:1],,4-1[4:1],,
{1}8xw4b[4:7],,,
E
