&title=甜甜饕餮糖糖
&artist=Kolaa
&first=0.17
&des=57qx55uQ
&lv_5=13+
&inote_5=(123){4},,,,{48}2,
3x,{24}4xh[24:5],{4},{16},,{24},{48}7,6x,{24}5xh[24:5],{4},{16},,{24},{48}1,
2x,{24}3xh[24:11],,,,,,,,,,,{2}Ch[4:7],
{4},,E1,E2,
E3,E4,{48}8,7x,{24}6xh[24:5],{48},,,,,,,,2,3x,{24}4xh[24:5],{48},,,,,,,,7,
6x,{24}5xh[24:5],{4},{16},,{24},{48}1,2x,{24}3xh[24:5],{4},{16},,{24},{48}8,
7x,{24}6xh[24:5],,,,,,,,,,,{2}4h[8:3],
{48}1b/8b,7x/2x,6x/3x,5x-1V73-5V37-1>4b[16:51]/4x-8V26-4V62-8<5b[16:51],{1},,,{4},,,{16},,{24},{8}5/4-1[8:1],
,,6,7-2[8:1],3,7,4,
3-8[8:1],,,7,{2}Ch[4:9],
{4}A7,B7,B2,A2,
A6,B6,B3f,A3f,
{8}7x-2[8:1],,,3,4-1[8:1],5,4,6,
7-4[8:1],{16},,,,1,2,{8}3-6[8:1],,,8,
7<4[8:1],,,3,2h[8:7],B3,B7,B5,
E4,B1,E7,A5f,3-8[8:1],2/4,3/5,7,
{48}7,6,{24}5,,{8}2h[8:1],{48}7,8,{24}1,,{8}3h[8:1],{48}7,6,{24}5,,{8}2h[8:1],{4}Cf,
{16},,7,1,7h[16:1],6h[16:1],5h[16:1],4h[16:1],3h[16:1],2h[16:1],{8}1,8,7/1-5[8:1],
2,1/6-3[8:1],7,6/2-5[8:1],1,2/7,8h[8:1],{24}E2,B2,B3,
{8}5h[8:1]/E4,2,1V75[8:1]*V35[8:1],C,{4}1,Cfh[4:1],
{1}8b<8V64V28[4:3],
{4}4-8[8:1],6q2[8:1],3-8[8:1],4v7[8:1],
1q5[8:1],6pp8[8:1],2>5[8:1],7h[4:1],
1pp3[8:1],2h[4:1],4p7[8:1],5h[4:1],
{8}1>4q5[2:1],,,6h[8:3],,,,,{4}7h[4:1],
D4f,2h[4:1],D6f,
{16}6,,,6,{8}4,E8f/D8/A8/A7,3,E2f/A1/D2/A2,6,5,
{4}4V28[8:1]*>8[8:1],4<4b[4:1]*V68V24b[4:1],{8}4,,,5/6,
{16}6/5-1[8:1],,,5xh[16:3],,,,,3/4-8[8:1],,,4xh[16:3],,,,,,1/7,
,3h[4:1]/5h[8:1],,,,,1-5[0.3659##0.1829]/2-6[0.3659##0.1829],,,1x/2x,,,{8}4h[4:1],
,5,6,7,8,1,2,3,
{16}4<4[16:7],,,,,,,,,,,Cf,{48},,,,,,,,,,,,1b/8b,
7/2,3/6,5s1[16:5]/4z8[16:5],{4},,{16},,{24},{8}7,6,
{2}5/4h[16:3],{16}2h[16:3],,,3h[16:3],,,{8}4,
{4}7h[2:1]/5q5[4:1],{8},,,,7,8,
{2}1/2h[16:3],{16}5h[16:3],,,6h[16:3],,,{8}7,
8qq4[2:1],{24},,,,,,A1,A2,A3,{4}A4,{8}2,1,
7/8h[8:1],{32}A6,D6,{16}A5,{4}A4,{8}1h[16:3],{48},,,,,,,,,,,,1b/8b,7/2,3/6,5<4q5b[16:25]/4>5p4b[16:25],{1},,{24},{4}Cf/E1/E8/B8/B1/B2/E3/A2/D3/D2/A1/D1/A8/D8/A7/E7/B7/E2/D7,
{8},,,,6/4,3,
2/5,{16}3h[16:1],4,{8}3h[16:1],3h[16:1],2,{16}1b/8b-4[8:1],7h[16:3],,,{8}8b,
5h[8:1],{16}3,3,2,2,1,1,8,8,{8}7bh[4:1]/1bh[4:1],{32},,,,,,,,1b,
2h[64:1],3,4h[64:1],5,6h[64:1],7,8h[64:1],{8}1,{32}2,1,2,1,3,8,3,8,{8}2b-6[8:1],,2b,
{4}5bV72[4:1],{8}E5f,B3,{4}4bV27[4:1],{8}E5f,B6,
{4}5b-1[8:1],{8}5b,4xh[16:3],{16},6,{8}5,{16}4,5h[16:3],,,{8}2,
2,{16}2,4,2,4,{8}2,1,1,1,
{16}7-3[8:1],5,7,5,{4}7b-5[8:1]*-1[8:1],7b,{8}3,2b-7[8:1]/4b-7[8:1],
2/4,4b/2b,,,3b/5b-8[8:1],5/3-1[8:1],{4}5b/3b,
{8},8b>3[8:1]/6bv3[8:1],7,6b/8b,,,{4}4b>4V28V64b[1:1],
{2}4b/Cf,C,
{4}B4,C,B7/B1/B8f,A8f/D8/A7/D1/A1,
6b/4bqq2[8:1],{8}4pp6[8:1],5,4-8[8:1],3,4,7,
{4}6q3[8:1],{8}4,5,{4}6<3[4:1],{8}3>6[4:1],4,
{4}5-1[8:1],{8}5b,{16}8,8,2,2,7,7,3,1,2,8,
1,7,8,6,5,7,4,6,3,5,2,4,{8}1-5[8:1],2/8,
{4}1,{8}6-8[8:1],7/5v2[8:1],6-3[8:1],5,6,1,
{4}2h[4:1]/8<4[8:1],{8}8-4[8:1],1,{4}8b<5[8:1]*>3[8:1],8bw4b[8:1],
8b,{16}7,8,7,7,2,1,2,2,{8}1-5[8:1],3/7,
{16}1/8h[16:3],,,3h[16:3],,,{8}4h[8:1],{32}5b-1[8:1],6h[64:1],7,8h[64:1],1,2h[64:1],3,4h[64:1],{4}5/6bh[4:1],
{8}3q7[8:1],{16}8,8,{8}3,6x,{4}5p8[4:1],{8}3,4x,
{4}5pp6[4:1],6>8[4:1],8p2[4:1],C,
4<8[4:1],8q2[4:1],2>8[4:1],1h[8:1],
2pp4[4:1],4V27[4:1],7V13[4:1],{8}6,6,
5q2[4:1],5,{4}2q7[4:1],7>5[4:1],C,
1h[4:1],2h[4:1],3h[4:1],{8}4h[4:1],2,
1h[4:1],8h[4:1],,5h[8:1],,,,,,,{4}6h[8:3],
2h[8:3],4h[4:1],
{48}1,2,{24}3h[12:13],{1},{24},{48}7,
6,{6}5h[48:25],{48},,,,,,,,,,,,,,,,,2,3,4h[96:47],,,,,,,,,,,,,,,,,{12}7,
{96},,,,,{32}8,{96},,,,{24}7,{48},,,6,{96},,,,,{32}5b-1[32:63],{1},{4},,,{16},,{64},,{96},{48}A5,
B5,C,B1,
E
