&title=エデンズゲート
&artist=打打だいず feat.初音未来
&first=-0.05
&des=Lunafoto
&lv_5=14++
&des_5=Lunafoto
&inote_5=
(270){4},{8},,,,,,4,
,,4,,,{4}5h[4:3]/4-1<8-5[4:3],
{8},,,,,,,,6,
,,4,,,{4}4h[4:3]/5-8>1-4[4:3],
{8},,,,,,,,3,
,,6/4,,,{4}7h[4:3]/5-8>1-4b[4:3],
{8},,,,,,,,6,
,,5/3,,,{4}2h[8:3]/4z8>1-7b[8:5],
,,{2}Cf,
{4}4-8[8:1],{8}7,7-5[8:1],,3,{4}3-8[8:1],
{16}6,5,{8}4,{16}1,2,{8}3h[4:1],8,8,{4}7b/2b,
5-1[8:1],{8}2,2-4[8:1],,6,{4}6-1[8:1],
{16}2,3,4,5,6,7,8,1,5,4,3,2,1,8,7,6,
{4}4>1[16:3],{8}7,7-4[8:1],,8,{4}8-3[8:1],
{8}6,5,{4}4h[8:1],{16}1,2,3,4,{4}6b/5b,
8b-4[8:1],{8}1,2b-5[8:1],,7,{4}6b-4[8:1],
{8}3,3bh[8:3],{24},,,,,,{12}E5,E6,E7,A1,E2,E3,
B8,B7,B6,A3,A4,A5,D8,D7,D6,D3,D4,D5,
8bh,1bh,8bh,1bh,8bh,1bh,{2}Cf,
4>3-1<7[2:3],5,
6,6h[2:1],
{8}E1,E2,E3,E4,E5,E6,E7,E8,
{12}D8,D7,D6,D5,D4,D3,{2}D2/A8/E1,
5-7>8>2[2:3],4,
3,3h[2:1],
{12}6b,6b,{6}4,7b,3b,{12}8b,1bs5[8:5]*s5[8:5],{6}2b,
{24},,,,,,,,,,,,,,,,,,{8}3,3,
{4}4/2-5[8:1],{8}7-4[8:1],7,1-5[8:1],1,{4}8,
2>6[4:1],6<2[4:1],2>6[4:1],6,
{8}8,8,7,7,6,6,5,5,
7,{16}4,3,{8}2h[4:1],{16}4,5,{8}6h[4:1],3,{4}4b,
{8}8-5[8:1],8,1-4[8:1],1,6-1[8:1],6,2-5[8:1],2,
{16}8,7,{8}6,3,{16}7,6,{4}5h[4:1],4,
{16}4,5,4,5,3,6,3,6,2,7,2,7,1,8,1,8,
A2,E3,E4,A4,A8,E8,E7,A6,A1,B1,C,B5,A6,E6,E5,A4,
{8}B2/B3/E3f,,,8h[4:1]/1h[4:1],,,{4}6h[4:5],
{1}5-2<8-4[4:5],
{2},B7,
{6}6,6,4,5,2,4h[6:1],
{8}E3f/B2/B3,,,8h[4:1]/1h[4:1],,,{4}6h[4:5],
{1}5-3v8-2-4[4:5],
{2},B7/E8,
{6}6,6,4,5,5,3,
{8}7,5,6,2,4,3,6,4,
5,3,4,3,7h,7h,5,4h,
4h,3,6,4,5,3,4,3,
7,1,8,2,1,2,6,4,
5,3,4,3,7h,1h,8h,2h,
1h,2h,6h,4h,5h,3h,3h,4h,
1V75[8:3],,,5V31[8:3],,,{4}1<5[8:3],
{8},5>1[8:3],,,1b<8<7<6>5[8:3],,,5>4>3>2<1[8:3],
,,{4}1<8<7<6>5b[8:3],{8},5>1b[8:3],{16},,,,6h[16:1],
,,6h[16:1],,,{8}6h[16:1],{16},6h[16:1],,,6h[16:1],,,5h[16:1],
,,{8}4h[16:1],{16},3h[16:1],{48},,,,,,{12}E6,E7,E8,E1,{6}E2,
{12},,,{4}B6/B2/B8/B4/Ch[8:3],{24},,,,,,,,,,,,1b/2b,
8/3,7/4,5/6h[8:5],{48},,,,,,,,,,{16}5,4,3,2,{8}1,{16}7,8,7,8,
7,8,7,8,7,8,7,8,{8}1h[8:1],5,3,7h[8:1],
4,6,{32}E1f,B8/B1,B7/B2,B6/B3,B5/B4,E5,,,,,,,,,,,,,,,,,,,{16}2,
1,2,1,2,1,3,8,3,8,3,8,4,7,4,7,
4,7,5,6,5,6,5,6,4,7,5,6,4,7,5,6,
4,7,5,6,{24}E1f/A1,E2,E3,E4,{12}E5,{24},,,,,,,,,,,,{8}7/5,
6,4,5/3,2,6,{16}1,7,1,7,
1,7,1,7,1,7,1,7,{8}2h[8:1],4,3,6h[8:1],
4,5,{16}3,2,1,8,7/1,6/2,5/3,4,5/3,6/2,7/1,8,
{32}E8f/E1f,B8,C,B4,{8}A4,{16},,6,2,6,2,6,2,5,1,5,1,
5,1,4,8,4,8,4,8,7,3,8,4,1,5,8,4,
7,3,8,4,{4}Cf,{24},,,,,,,,,,,,8,
7,6,5h[4:1],,,,,,{8}3,3,4,2,2,
5,1h,,,8<7[8:1],6>5[8:1],{4}4>3[8:1],
{8},,1>2b[8:1],3<4b[8:1],{2}5<6b[8:1],
{8}7/1,{16}1,8,7,1,8,7,1,8,7,1,8b,7,6,5,
4,3,2,1,8/4,5,6,7,2,1,2,1,2,1,2,1,
2,1,2,1,{8}3h[8:1],5,4,7h[8:1],5,6,
{24}B1,C,{1},{4},{16},,{24},{2}5-8>1-4[4:5]*-8>1-4[4:5],
,,Ch[2:7],
B7h[1:3],
B1h[2:5],B3h[1:2],
B5h[2:3],E1h[1:1],
{1}E5h[2:1],
{8}6`4,,,5,{4}3,4h[4:1],
{8}2,2,5,5,3,3,{4}6,
{8}4,,,4,{4}6,5h[4:1],
{8}7,7,4,4,{2}B7/E7/B6`B2`B3`E3,
{8}7,{16}7,5,{8}6,6,3,5,4,4,
8,{16}7,6,{8}5,3,4,4,6h[8:1],5,
{4}5p4[4:1],{8}8,8,,3,{4}3h[4:3],
{12}E5,E6,E7,E8,E1,E2,{24},,,,,,,,,,,,{8}2,
{16}2,4,{8}3,3,5,5,4,4,
6,6,5,5,7,7,1,1,
{24}A7,B7,C,B3,{6}A3,{24},A1,B1,C,B5,A5,,,,,A8,B8,C,B4,{12}A4,
{2}1h[2:1],{4}E5,Cf,
2>5[16:3],6-1[8:1],2-5[8:1],7-4[8:1],
1,2/3,5/4,7/6,
{16}1,8,{8}7h[8:1],{16}3,4,{8}5h[8:1],{16}8,1,{8}2h[8:1],{16}5,6,{8}7h[8:1],
{16}8,1,2,3,4,5,6,7,{4}8-4[8:1],8,
3-6[8:1],7-2[8:1],4-1[8:1],8-5[8:1],
3,1/2,7/8,{8}6/5,7/4,
{16},,2b,4,{8}3,{16}7b,5,{8}6,3b/4b,5b/4b,6b/5b,
{16}1,8,1,8,1s5b[16:3],8,1,8,{2}1b,
{4}7<4[8:1],3v8[8:1],7-4[8:1],3-8[8:1],
6,4/3,2/1,{8}7/8,7/8,
{16}6,5,4,3,8h,7h,6h,5h,2,1,8,7,{8}3,3bqq5[16:5],
,,{4}E8/A7f,E6f/A5,Cf,
{8},,2-5[8:1],2,7-4[8:1],7,1-5[8:1],1,
8-6[8:1],8,2-4[8:1],2,{16}1,8,7,6,5/1,8,7,6,
5/1,8/4,7/3,6/2,{24}1/5,8,7,6,5,4,3,2,1,5,6,7,8,1,2,3,4,5,
{32}A1,A2,A3,A4,A5,A6,A7,A8,D2,D3,D4,D5,D6,D7,D8,D1,E2,E3,E4,E5,E6,E7,E8,E1,B1,B2,B3,B4,B5,B6,B7,B8,
{1}Cfh[1:2],
{2},,,8b/E7f,
4b/E3f,E1f/E5f,
{4}6b/4-2[8:1],8-6[8:1],5-3[8:1],{8}5,6,
{4}7-5[8:1],1-3[8:1],4-8[8:1],{8}4,1,
{16},,7,5,{8}6,{16}2,4,{8}3,7,6,5,
{12}1,3,1,3,1,3,{24}A8,E8/E7,E6,E5/A4,,,,,,,,,{8}6,
6,4,4,8,{16}8,7,{8}6,6,
{16}3,4,{8}3,{16}5,4,{8}6,{16}3,2,{8}1h[8:1],{16}7,6,{8}5h[8:1],
3,{16}3,4,{8}3,3,7,{16}6,5,{8}6,6,
{16}1h,2,3,4,1h,2h,3,4,1h,2h,3h,4,1h,2h,3h,4h,
{32}1b,B1,C,B5,{8}A5,,,,,,,,,,,,,,,{1}5-8>1-4[4:5]/4-1<8-5[4:5],
,6h[1:1]/3h[1:1],
,{32}E2`E8,
B8`B1,B7`B2,E7`E3,A7`A2,B6`B3,{16}B5`B4,{1},{4},,,{8}4,
,,4,,,{4}5h[4:3]/4-1<8-5[4:3],
{8},,,,,,,,6,
,,4,,,{4}4h[4:3]/5-8>1-4[4:3],
{12},,,,,,,,,,,,1,
8,7,6,,,1,2,3,4,,,7,
5,6,1,3,2,{2}8b,
E
