&title=スタートリップ
&artist=保科めぐみ
&first=0
&des=艾瑞Airy
&lv_5=13
&inote_2=
&inote_3=
&inote_4=
&inote_5=(148){4},{8},,,,,,,,,,,,,,3h[8:3],
,,4h[8:3],,,{4}5h[8:3],
{8},6h[8:13],,,B4,B3,,E2,
,,,3h[8:3],{24},,,,,,,,,,,,{12}5x,
3,6,4,5,3,{16}6x,4,5,4,{4}5-8[8:1],
5b/2h[4:1],{8}1,8-5[8:1],,2-6[8:1],,7<4[8:1],
,1-6[8:1]*-4[8:1],,1,,1<6[8:1],2,3,
,8>3[8:1],7,6,,1-5[8:1],8,2,
,8<5[8:1],{32},,,,,,,,B4,B3,B2,B1,B8,B7,B6,B5,E4,E3,E2,E1,E8,E7,E6,E5,
{4}E4f/D4,{8}7-4[8:1],7,8-3[8:1],8,6,6,
,3/1-5[8:1],2,1x/8,,6/8-4[8:1],7,1/8x<5pp4[8:5],
,1,{4}1h[4:1],{8},1,2,3,
4xqq8[8:5],,,B6/A6,,,{4}B7/A7,
{1}6xh[4:7],
{8}A3/B3,,,A2/B2,,,{4}A1/B1,
{1}3h[4:7],
{8}A8/B8,,,A7/B7,,,{4}A6/B6,
{1}6p5[2:1],
3qq4[2:1],
3qq4[2:1]/6p5[2:1],
3qq5b[2:1]/6pp4b[2:1],
{4}4bh[8:1]/6bh[8:1],5h[8:1]/7h[8:1],6h[8:1]/8-4[8:1],8,
5h[8:1]/3h[8:1],4h[8:1]/2h[8:1],{2}3h[8:1]/1-7[8:1]*-3[8:1],
{4}4h[8:1]/6h[8:1],5h[8:1]/7h[8:1],6h[8:1]/8-4[8:1],8,
{8}3,3,4,5,7,7,6,5,
{4}4h[8:1]/6h[8:1],5h[8:1]/7h[8:1],6h[8:1]/8h[8:1],7/1s5[4:1],
,,{2}6-1[8:1]/5-2[8:1],
{4}1bxq5[4:1],{8}5q1[4:1],5,{4}1V35[4:1],{8}5V71[4:1],5,
{4}1>5[4:1],{8}5<1[4:1]*q3[16:5],5,,,,,5x/2x,
2x/5x,{4}5x/2x>8[4:1],{8},,,5x<8[8:1],
,,{4}3qq5[8:3],B6/A6,A7/B7,
{8}4x/7x,7x/4x,{4}7x<4[8:1]/4x>1[8:1],{8},,,A3f/D4/D3,
,,,8,{16}7/5,,,4/5,,,{8}2/4,
{4}1-5[8:1],8,7-3[8:1],6,
{2}5>2[8:1]*<8[8:1],{16}1h[8:1],,,2h[8:1]/8h[8:1],,,{8}3x/7x,
,6/4,{4}5qq5b[8:3]*pp5b[8:3],{8},,,A5f/D6/D5,
{16},,2,4,3,5,4,6,{2}5-8[8:1]*-2[8:1],
{8}8x<5[8:1],1,2,3x>8[8:1],4,5,6x>3[8:1],7,
{4}8-5[8:1]*-3[8:1],8,8-4[8:1],8<5[8:1]*>3[8:1],
{8}8bw4[8:1],,,,,6-4[8:1],3-7[8:1],6,
{4}3>6[4:1],6<3[4:1],3q3[4:1],8,
7-4[8:1],{8}3,2-6[8:1],,2/8-4[8:1],,8<5[8:1]*>3[8:1],
{16},,,,,,,,8/1,,,2/4,,,{8}5/7,
{2}1-3[8:1]*-7[8:1],{16}1/8,,,7/4,,,{8}5/2,
{4}1<6[8:1],1>4[8:1],1v6[8:1]*v4[8:1],1pp4b[8:3]*qq6b[8:3],
,,2q6[8:1],{8}7,8x>3[8:1]*<5[8:1],
,,,,{4}4-8[8:1],4>1[8:1]*<7[8:1],
{8}4bw8[8:1],,,,,2-4[8:1],1-5[8:1],2,
{4}1<6[8:1]*>4[8:1],1,{16}4,5,3,4,{4}2,
{8}2/4,{16}5,4,6,5,{8}7x-4[8:1],,7/1x-5[8:1],,Cf/1b>7[8:3]*<3[8:3],
,,,,,,{4}2-4[8:1]/8-4[8:1],
2/8,5/3,{16}3,5,4,6,{8}5,7-5[8:1],
1-5[8:1],7,{4}1,{16}6,4,5,3,{8}4,2,
{4}2h[4:1],{8}6pp5[8:3],6,,,,3,
3qq4[8:3]*qq4[8:3],,,7,7<5[8:1],,,4,
3,2-6[8:1],8,2x/1-5[8:1],,1x/8-4b[8:1],,8/Cf,
,,3,4/5,,7,6,4x/5x,
,4/5,6,3/5,2,6/4,7,5/3,
{4}7x/2x,{8}8<4[4:1],8,,,3,2,
{16}5xh[16:3],,,3,,,{8}1,2-5[8:1],2,7,7,
,1<6[8:1],2,3/1x,,8>3[8:1],7,6/8x,
{16},,1,2,8,3,7,4,6,5,7,4,8,3,{8}1b,
,4/7,{16}6,5,{8}6,{16}3,5,4-8[8:1],5,{8}3,4b<3[8:17]*<3[8:17],
E
&inote_6=
