&title=鬼ごっこ
&artist=春野 feat.洛天依
&first=0.39
&des=九
&lv_5=13
&inote_5=(106.1)
{4},,,,
{8}5<3[2:1],,,,,4h[8:3],,,{1}3>5[2:1]`3?pp2[4:3],
{8}8<2[2:1],,,,,1h[8:3],,,{1}2>8[2:1]`2?qq4[4:3],
{8}6<4[2:1],,,,,5V36-2-7-1[32:35],,,{1},
{8}5z1[8:5],,,,,8$,,,{1}8?w4[8:3],
{8}18,,{48}A7/1,D7,,,,,{8}1>5[4:1],,6,6h[2:1],,
A4,B5,B3,C,E2,{16}5,6,7,,1,2,
{8}34,,{48}A5/3,D6,,,,,{8}3>7[4:1],,6,6h[2:1],,
E7,E6,C,E4,E3,{16}5,,34,,2,1,
{8}78,,{48}A1/7,D2,,,,,{8}7<3[4:1],,3,2>7[4:1],1h[4:1],
,,2,3>7[4:1],,7,6,5,
4-7[8:1],,14,2,3-8[8:1]/8-3[8:1],,3pp6[8:3]/8,,
{16}7h[8:1],,,7h[8:1],,,{8}7,,45,54,,
(105){1}4-1[4:3],8-5[4:3],
(106){4}1p8[4:3],,,{8}7,7,,,2,2,,,36,,
{1}5-8[4:3]/4,1-3v4[4:3],
(106){4}5w1[2:1],,,8?-5b[26.5#48:1],E1,E3,E5,(114)5x/8b,
(106){8}3x-1[11:1]`4x-6[11:1],52,,,1q6[8:1]`6p1[8:1],78,,,
{16}A3/8xh,,,8xh,E5,,8xh,,6-3[8:1],,,,,,,,
{8}3x-5[11:1]`8x-6[11:1],12,,,6^4[10:1]`5^7[10:1],38,,,
{16}2x<6[4:1],,,7x<3[4:1],,,4x>8[4:1],,,,7,,6,,5,,
{8}4v5[8:1]`8v1[8:1],,,,2-7[8:1]`6-3[8:1],37,,,
{16}A4/1xh,,,1xh,E6,,1xh,,7p4[4:1],,,,,,,,3V16[16:3],,1-7[16:1],,,,,,
{8}5,4,37,2,1/E7,,C,,E3,{16}1,8,7b>4[16:3],,,,
{8}7/6qq5[4:1],,,,,{16}8,1,{8}2<5[16:3],,
{8}2/3pp4[4:1],,,,,{16}1,8,7,6,5,,
{8}2>6[32:5]/4>8[32:5],3h,,,,{16}8,1,2,3,4,,
5h[8:1]/7h[8:1],,,7h[8:1]/5h[8:1],,,{8}5p7[16:3]/7,,6,6,,
{8}5x^7[11:1]`4x^2[11:1],36,,,7v2[8:1]`2q7[8:1],18,,,
{16}A6/1xh,,,1xh,E5,,1xh,,3-6[8:1],,,,,,,,
{8}6x^4[11:1]`1x^3[11:1],87,,,3v5[10:1]`4v2[10:1],61,,,
{16}8h[16:3],,7,7h[16:3],,6,6,,,,34,,2/1-4[10:1],,,,
{4}5z1[4:3],,,,
8h[4:3],2,6,4^1[8:1],
{8}45,,{48}A6/8,D7,,,,,{8}8>4[4:1],,7,7h[2:1],,
,4,4,5,3h[4:1],{16},,2,,8,,
{8}56,,{48}A3/7,D3,,,,,{8}7<3[4:1],,2,2h[4:1],,
1-4[8:1],,8,7,6-3[8:1],,E3,,
{8}18,,{48}A3/6,D4,,,,,{8}6<2[4:1],,2,3>5[16:5],,
{16}4,,,4,,,4-1[8:1],,,,E7h[8:1],,,,,,
2x-6-4[16:3],,,2,7-1[10:1],,,7,3h[8:1],,,,3,,,,
7^5[8:1],,,7,3p4[4:1],,,,,,6,,6,,,,
3x-7-1[16:3],,,3,6-4[10:1],,,,2h[8:1],,,,2,,2,,
34,,45,,56,,6/7p6[4:1],,,,2,,2b,,,,
{1}3^6[4:3],2>7[4:3],8p1[2:1],{8}1v8[8:3],,,,,,1v2-4[8:1],8-5b[14.11#96:1],
{1},
{4}2h[8:1]/3h[8:1],1h[8:1]/4h[8:1],8h[8:1]/5h[8:1],5b/8b,
{8}2x-5[10:1]`6x-3[10:1],8,,,7-4[10:1]`3-6[10:1],1,,,
{16}5h/E3,,5h,C,5h,,E7/5h,,{8}5x-8^1[8:1],,,,
2^7[10:1]`8^3[10:1],46,,,7^2[10:1]`1^6[10:1],53,,,
{16}3/4h,,,5h,3,,6xz2[16:3],,{8}3s7[16:3],,,,
8v7[10:1],8-3[8:1],,,1v2[10:1],1-6[8:1],,,
{16}5h[16:3],,,4,4h[8:1],,{8}5^4-1[7:1],,,E7,,
7-5[10:1]`8p4[8:1],B1`A1,,,2-4[10:1]`1q5[8:1],A8/B8,,,
E7,,C,,1^4[10:1]`4^1[10:1],,D3f,,
8-3[8:1],3pp4[4:1],,1h[4:1],,,1-4[8:1],,
1-6[8:1],6qq5[4:1],,8h[4:1],,,8-4[8:1],,
8^2[8:1],2-6-4[4:1],,3h[4:1],,,3-1[8:1],,
{16}4-1[8:1],,,,{8}8-4[8:1],,5-8[8:1]`5?-7[8:1],,,,
1>7[4:1],,C,,8v5[8:1]`8?v3[8:1],17,,,
{16}D3,,,5h,E4,,1h,,E8,,,,D7,,,,
{4}4p5[16:3]`5q4[16:3],,,E6`E4,
{16}5h[8:1],,3,7,5-8[8:1],,6,,6b<5[4:1],,,,,,,,
{48}E5,E4,E3,,,,,,,,,,{4},,,E7,,,,E3,,,,{48}D6,A5,,,,,,,,,,,{4},,,D4/A4,,,,(102)C,,,,E1,,
