&title=マイナーピース
&artist=ZAQ
&first=0
&des=PiecE:G major
&lv_5=13+
&inote_5=(146){4},,,,
(146.01){4},
(146){16}6h[8:1],,5,6h[8:1],,4,6h[8:3],,
,,5,,4,,3,,
2h[8:1],,4,2h[8:1],,5,2h[8:3],,
,,4,,5,,6,,
7h[8:1],,5,7h[8:1],,4,7h[8:3],,
,,5,,4,,3,,
2h[8:1],,4,2h[8:1],,5<8[16:3],2h[8:3],,
,,,,,,,,
{8}8h[8:1]/5-2[12:1],,7h[8:1]/5,,
6h[8:1]/1-4[12:1],,5h[8:1]/1,,
7h[8:1]/5>2[12:1],,6h[8:1]/5,,
5h[8:1]/1p5[12:1],,6h[8:1]/1,,
7h[8:1]/4,3,6h[8:1]/2,1,
8/5,2/4,5/6v3[12:1],1/7,
{16}6b/2h[8:4],,,,,,,,
6h[16:2],,,3h[16:2],,,8,,
{16}4/7,,5,6,,7,4,,
5/2,,6,4,,3,4,,
2,5h[16:7],,,3,,2,,
1h[8:1],,{32}4,5,6,7,,,2>4[16:3],,6q1[16:12],,,,
{4},,2>5[12:1],2b,
{16}4/7-5[12:1],,3,,2/7,,1,,
2/4,,5,3h[8:1],,6,4h[8:1],,
7-5[12:1],5,,5,7,,1,,
2/4,,5,3h[8:1],,6,4,,
5/7-5[12:1],,4,,3/7,,1,,
2/4,,5,3h[8:1],,6,4h[8:1],,
,7,5,6,4,5,,2,
4pp6[8:1]*v1[8:1],,,,4,,,,
{8}8>5[8:4]/5,,6,,7,,8,,
8-5[8:3]/5,,4,,3,,2,,
1-4[8:2]/4,,5,,6-1[8:2],,5,,
4,,3/7,,2/6,1,3/5h[8:2],,
3-5[12:1],2,3/7,,3-5[12:1]/5-7[12:1],2,3/5,,
3/5V71[8:2],,1V35[8:2],,5V71[8:2],,1pp1[8:2]*qq1[8:2],,
,,,2h[8:5]/6h[8:9],,,,,
,1,7,5,4,3,2/4-8[12:1],1,
{16}2b>5[12:1]/4b,,,6,,,8,,
4/2>5[12:1],,,6,,,8,,
2,4,3,5,4,6,5,7,
1p5[12:1],,7v4[12:1],,1,,7,,
2b,,6,4,8,,3,5,
1-3[12:1],7,,5,1,,6,,
{8}3/4,1,4/6,8,
2>5[12:1]/4,8/7-3[12:1],2<6[8:8]*<5[8:10]*<4[8:12]*<3[8:14],7,
{4},,,,
,,,,
{4}2h[8:1]/4h[8:1],3h[8:1]/5h[8:1],
{16}4/6,,5,7h[16:3],,,,,
{8}2-4[12:1],2,6-4[12:1],6,
{16}3<8[8:1],,2,2,,,,,
{16}3h[16:3],,,6h[16:3],,,5h[16:6],,
7-4[12:1],,,,,,,,
{16}2h[16:3],,,8h[16:3],,,5,,
7-4[12:1],,4,,3,,2,,
{16}1/6,,,3,4,,2,,
6,5,7,4,5,,2,,
{8}6b/8b,2b/5b,8bw4[12:1]/4b,6b/1b,
,,3/7<4[12:1],,
{16}7b/2,,,3,8<5[12:1],,4,,
3/8,,2,,1>4[12:1]/6,,8/7,,
{16}1b/6,,,5,1>4[12:1],,5,,
6V41[8:1]/1,,7,,6h[8:2],,,,
{32}2b,3,4,5,,,{16}7,3-5[12:1],,5,,
6>1[8:1],,7,,7,,7,,
{8}7b/8b,5b/6b,3b/4b,1b/2b,
5w1[12:1]/7,3b/8b,,,
{32}8/2b,3,4,5,,,{16}7,1>4[12:1],,5,,
6/1,,7,,8<5[12:1]/3,,1/4,,
{16}8b/3,,,4,8<5[12:1],,4,,
8/4v7[12:1],,3,,2v5[12:1],,1,,
{12}8b,7h[384:1],6h[384:1],4-8[12:1],3h[384:1],2h[384:1],{4}4/1V35[8:1]*V75[8:1],1,
{16}4/7,,5,6,3,,4,5,
2,,3,4,1,,2,8,
1<6[12:1],,,,2,,,,
8<5[12:1]/4,,,3,,,1,,
7<4[12:1],,3,,2,,1,,
6>3[12:1]/3,,,2,,,1h[8:5],,
5,,5,,5,,5,,
{32}4,3,2,1,8,7,6,5,1h[8:1],,,,,,,,
{32}6/1b,2,3,,6,,,,7<4[12:1]/2b<7[12:1],3,4,,7,,,,
{16}2b,,,1/6,,,2/7,,
{8}3b/8b-4[12:1],4,3V58[8:1],2,1w5[12:1],1,,,
{32}3/8b,7,6,,3,,,,2>5[12:1]/7b>2[12:1],6,5,,2,,,,
{16}7b,,,8/3,,,7/2,,
{8}6b/1b-4[12:1],5>2[12:1],,6,6V82[12:1]*q2[12:1],,,,
{32}2/7b,6,5,,1,,,,2b/7<4[12:1],3,4,,8,,,,
{16}7b/2,,,1/6,,,3/4,,
{16}1b/7b,,2>5[8:1],2,8h[16:2],,,,
1,2,3,4,1/5,6,7,8,
{16}4h[8:1],,1,4h[8:1],,7,4,,
6h[8:1],,5,6h[8:1],,8,6,,
{32}8h[16:1]/1b,2,3,,,,1h[16:1]/7b,6,5,,,,8bpp1[8:1]*qq6[8:1],7/1,6/2,5/3,
{4},,E
