&title=Never Say
&artist=ND Lee
&first=0
&des=TNO138
&lv_5=13+
&inote_5=(180)
{1},,
{2},{16}2,,,2,,,2,,
{8}4h[8:1],,3,4h[8:1],,3,4h[8:1],,
{8}3,4h[8:1],,3,4-7[8:1],,,,
{8}5h[8:1],,6,5h[8:1],,6,5h[8:1],,
{8}6,5h[8:1],,6,5-1[8:1],,,,
{8}4h[8:1],,2,4h[8:1],,2,4h[8:1],,
{8}2,4h[8:1],,2,4-1[8:1],,,,
{8}5h[8:1],,8,5h[8:1],,7,{16}5,,6,5,6,,
{8}4,{16}6,5,{8}6-3[8:1],4-1[8:1],,,,
{8}8,,8,,8,5,7,4>1[8:1],
{8}5,,7,,1,4,2,5<8[8:1],
{8}4,,2,,8,5,7,4,
{8}5<8[8:1],,2>5[8:1],,7,6,3,2,
{8}1h[4:1]/7,,4,1,,1,,1/5<8[8:1],
{8},1,,1,4,2,6,4,
{8}8,8h[8:1],,6h[8:1],,4h[8:1],,{16}3,4,
{8}3,7,{16}3,4,{8}3,5,4,6,5,
{8}8-5[8:1],,{16}4,3,{8}2h[8:3],,,1,3-8[8:1],
{8},7,7,,5,8,6,1-4[8:1],
{8}8,,5,,3,8,1,7,
{8}8-3[8:1],,5-8[8:1],,3,2,7,6,
{8}1h[4:1]/5,,7,2,,34,,{16}6,5,
{8}6,8,,8,5,7,3,5,
{8}1-5[8:1],,4,4<7[8:1],,3,,{16}2,1,
{8}2,6,{16}2,1,{8}2,8,1,7,8,
{8}5-1[4:3],,,,,,,2-6[4:3],
{8},,,,,,7,,
{8}7-3[4:3],,,,,,,4h[4:3],
{8},,,,,1,48,,
{8}1-5[4:3],,,,,,,6h[8:1],
{8},,6h[8:1],,,6h[8:1],,,
{8}56,47,,{16}3,4,{8}3,2-5[8:1]/5,,4b,
{8},7-4[8:1]/4b,,5b,,2/5b,2b/5-1[8:1],,
{8}4h[4:1],,8,8-5[8:1],,8-3[8:1],,4-7[8:1],
{8},4-1[8:1],,8-5[8:1],,8-3[8:1],,4-7[8:1],
{8},4-1[8:1],,8-4[8:1],,8,,3-8[8:1]/5-8[8:1],
{8},,,7,1,5,3,1,
{8}5,5>2[8:1],,5<8[8:1],,1>4[8:1],,1<6[8:1],
{8},5>2[8:1],,5<8[8:1],,1>4[8:1],,1<6[8:1],
{8},5-1[8:1],,5,,28,28,{16}3,4,
{8}3,1,{16}6,5,{8}6,8,4,6,2,
{8}5-8[8:1],1,5,4-1[8:1],8,4,5-8[8:1],1,
{8}5,4-1[8:1],8,4,6h[2:1],,,,
{8}3-8[8:1],7,3,4-7[8:1],8,4,3-8[8:1],7,
{8}3,4-7[8:1],8,4,3h[2:1],,,,
{8}6-1[8:1],2,6,5-2[8:1],1,5,6-1[8:1],2,
{8}6,5-2[8:1],1,5,7,6,45,3,
{8}26,{16}3,4,{8}5,5,4,7,5,{16}6,5,
{8}6,3h[8:1],4h[8:1],5>2[8:1],6h[8:1],,,,
{4}3b/4h[4:1],5,6b/5h[4:1],4,
{4}3b/4h[4:1],5,5b/6-3[8:1],3b,
{4}2b/4h[4:1],5,7b/5h[4:1],4,
{4}2b/4h[4:1],5,7-3[8:1]/5b,3b,
{4}4h[4:1]/2b,8,1h[4:1]/7b,5,
{4}6h[4:1]/4b,2,1b/3-7[8:1],7b,
{4}6h[4:1]/8b,2,1h[4:1]/3b,5,
{4}4h[4:1]/6b,{16}8,,7,5,6b,,2,4,3b,,6,,
{8}5/4-8[4:3],,,,,,,7-3[4:3],
{8},,,,,,2,,
{8}2-6[4:3],,,,,,,5h[4:3],
{8},,,,,8,15,,
{8}8-4[4:3],,,,,,,3h[8:1],
{8},,3h[8:1],,,3h[8:1],,,
{8}43,5h[4:1]/2,,6,,7-4[8:1]/4,,5b,
{8},2-5[8:1]/5b,,4b,,7/4b,7b/4-8[8:1],,
{8}5>2[4:6],,,,,1h[8:1],,8h[8:1],
{8},7h[8:1],,6h[8:1],,5h[8:1],,4,
{8}1-4[4:1],,,8-5[4:1],,,,3<6[4:1],,,,,8,4,6,2,
{8}4,4-7[8:1],,4>1[8:1],,8-5[8:1],,8>3[8:1],
{8},4-7[8:1],,4>1[8:1],,8-5[8:1],,8>3[8:1],
{8},4-8[8:1],,4,,71,71,{16}6,5,
{8}6,8,{16}3,4,{8}3,1,5,3,8,
{8}5-1[8:1],7,5,4-8[8:1],2,4,5-1[8:1],7,
{8}5,4-8[8:1],2,4,5h[2:1],,,,
{8}6-2[8:1],3,6,5-1[8:1],8,5,6-2[8:1],3,
{8}6,5-1[8:1],8,5,6h[2:1],,,,
{8}3-7[8:1],7,3,5-1[8:1],1,5,3-7[8:1],7,
{8}3,5-1[8:1],1,5,2,3,45,6,
{8}37,{16}6,5,{8}4,4,5,2,4,{16}3,4,
{8}3,2h[8:1],4h[8:1],1h[8:1],5h[8:1],8h[8:1],6,,
{8}2>5[4:6]/7,1,8,2,1,8,2,1,
{8}8,2,1,8,2h[32:1],,,,
{8}8<5[4:6]/3,1,2,8,1,2,8,1,
{8}2,8,1,2,8h[32:1],,,,
{8}3>8[4:6]/6,4,5,3,4,5,3,4,
{8}5,3,4,5,3h[32:1],4,5,6,
{8}37,{16}6,5,{8}4,4,5,2,4,{16}3,4,
{8}3,6h[8:1],5>2[16:3],4<7[16:1],
