&title=三灯火
&artist=ゆりと
&first=0
&des=Wozozo
&lv_5=14
&inote_5=(156)
{1},
{16}1-3-7-5s1[8:5]/8-6-2-4z8[8:5],,,,,,,,,,,,,,,,
{16}2x,,3,,4,,5h[4:1]/3x,,,,6,,5,,4h[8:5]/7x<1[4:1],,
{16},,,,,,,,E8,,,,6,5,6,5,
{16}7x,,6,,5,,4h[4:1]/6x,,,,2,,{24}1x,8x,7x,{16}6x/2pp6[8:5],,
{16},,,,8,,,,8,,,,8,,,,
{16}7xh[32:1],4,5,4,1xh[32:1],4,5,4,{64}A7,D7,A6,,{16},{64}A2,D3,A3,,{16},8xb,,,,
{16}2h[8:1]/5,,4h[8:1],,3h[8:1],,1,,2h[8:1],,1,,3h[8:1],,1,,
{16}2h[8:1]/5,,4,,3h[8:1],,1,,2h[8:1],,4,,3h[8:1],,1,,
{16}2h[8:1]/5,,4h[8:1],,3h[8:1],,1,,4h[8:1],,1h[8:1],,5h[8:1],,1,,
{16}6h[8:1],,1^6[8:1],,6^3[8:1],,,,,,1,,8x/2x,,,,
{16}7h[8:1]/4,,5h[8:1],,6h[8:1],,8,,7h[8:1],,8,,6h[8:1],,8,,
{16}7h[8:1]/4,,5,,6h[8:1],,8,,7h[8:1],,5,,6h[8:1],,8,,
{16}7h[8:1]/4,,5h[8:1],,6h[8:1],,8,,5h[8:1],,8h[8:1],,4h[8:1],,8,,
{16}1x<2pp7[8:4]b/4x,,,,,,,,,,,,6bx,,,,
{16}2-5[8:1],,5,,5,,6-2[8:1],,2,,2,,3h[8:1],,4h[8:1],,
{16}2-7[8:1],,7,,7,,6-2[8:1],,2,,2,,1h[8:1],,8h[8:1],,
{16}3-6[8:1],,6,,6,,7-3[8:1],,3,,3,,4h[8:1],,5h[8:1],,
{16}3^8[8:1],,4,,5,,6^3[8:1],,7,,8,,1b,,,,
{16}7-4[8:1],,4,,4,,3-7[8:1],,7,,7,,6h[8:1],,5h[8:1],,
{16}7-2[8:1],,2,,2,,3-7[8:1],,7,,7,,8h[8:1],,1h[8:1],,
{16}6-3[8:1],,3,,3,,2-6[8:1],,6,,6,,5h[8:1],,4h[8:1],,
{16}6^3[8:1],,5-1[8:1],,,,,,,,8,,2b/6b,,,,
{16}2/5,,3,4,3,,2h[4:1],,1^4[8:1],,8,,7,,6,,
{16}35,,2,1,2,,3h[4:1],,4-1[8:1],,5,,6,,7,,
{16}2/8,,3,4,3,,2h[4:1],,3qq1[8:1],,4^7[8:1],,,,,,
{16}2x,,6,5,7,,3,4,2-6[8:1],,1/7,,26,,,,
{16}7/4,,6,5,6,,7h[4:1],,8^5[8:1],,1,,2,,3,,
{16}64,,7,8,7,,6h[4:1],,5-8[8:1],,4,,3,,2,,
{16}7/1,,6,5,6,,7h[4:1],,6pp8[8:1],,5^2[8:1],,,,,,
{16}7x,,2,4,3,,7,5,6x-1[8:1]*-2[8:1],,2,,,,,,
{16}3b/8b,,3,4,3,,38,,3,4,3,,37,,4,,
{16}25,,2,1,2,,25,,2,1,2,1,2,,3,,
{16}16,,1,8,1,,16,,1,8,1,,27,,36,,
{16}45,,6,5,6,5,6,,3-7[8:1],4,3,4,3,,5,,
{16}61,,6,5,6,,61,,6,5,6,,62,,5,,
{16}74,,7,8,7,,74,,7,8,7,8,7,,6,,
{16}83,,8,1,8,,83,,8,1,8,,7/2,,,,
{16}3/4-1[8:1],,65,,8,,{24}7x,6x,5x,1x,2x,3x,{16}4x/8x,,2bx-5[8:1]/6bx-3[8:1],,,,
{16}2b-8[8:1]/6b,,,,72,,7b-5[8:1],,,,47,,4b-2[8:1],,,,
{16}5b^8[8:1]/4,,,,{24}1x,2x,3x,{16}4xb,,,,{48}D1f,A8,E8,A7,D7,,{16},,{48}D5f,A4,E4,A3,D3,,
{16}8bxh[8:1],,,7h[8:1]/1h[8:1],,,6b-2[8:1]/2b,,,,46,,4hb[8:1],,{24}1x,8x,7x,
{16}6bx/2bx,,3qq5[4:1],4,2,,8bhx[16:3],,,,,,3b/6b,,,,
{16}2/5b,,3,4,3,,1/5,,2,4,2,,7/8,,1,,
{16}7/4b,,6,5,6,,8/4,,7b,5,7,,2/1,,8,,
{16}4b/7,,36,,2b/5,,14,,8b,5,8b,5,8bs4^1b[8:5],5^8z4[16:9],8b,5,
{16},,,,,,,,,,,,2bx/6bx,,,,
{16}7-4[8:1]/3,,6,5,7,,2,,1-6[8:1]/5,,2,4,1,,5,,
{16}5^8[8:1]/3,,6,4,5,,{24}E3,B4,E6,{16}8b,,,,3/8-4[8:1],,7,,
{16}18,,2,2,4,,7,7,5,,1,,2^5[8:1]/8,,5-1[8:1],,
{16}1^6[8:1],,6,,5xw1[8:1],,5x,,,,,,3/7,,4,,
{16}12,,3>5[4:1],4,2,,8h[4:1],,,,,,83,,2,,
{16}87,,6<4[4:1],5,7,,1h[4:1],,,,,,16,,7,,
{16}12,,3,4,1,,6,5,8,,3,6,7x-4[8:1]/2x-5[8:1],,1/8,,
{16}2b/7b,,,,1b/8b,,{24}2,3,4,7b,6,5,{16}1,,2b/8b,,,,
{16}2-5[8:1]/6,,3,4,2,,7,,8-3[8:1]/4,,7,5,8,,4,,
{16}4^1[8:1]/6,,3,5,4,,{24}E7,B5,E4,{16}1b,,,,6/1-5[8:1],,2,,
{16}81,,7,7,5,,2,2,4,,8,,7^4[8:1]/1,,4-8[8:1],,
{16}8^3[8:1],,3,,4xw8[8:1],,4x,,,,,,62,,1,,
{16}8b/7b,,6pp5[4:1],4,5,,2h[4:1],,,,,,34,,25,,
{16}1b/6b,,{24}8,1,2,{16}3,,{24}1,8,7,{16}6/3b,,1,,3b-8[8:1]/7b-4[8:1],,,,
{16}3b/7b/C,,,,2/1,,8b/4b,,,,6b/5b,,7/3,,5bV74[4:1]/1b,,
{16},,4-8[8:1],,8-3[8:1],,3V16[4:1],,2-5[8:1],,,,,,,,
{16}Cf,,,,,,B8/B1/E1f,,,,7x/E4f,,2x/E6f,,8x/1x,,
{16},,,,27,,,3x,5x-1[8:1],4x,6x,,5bx/8bx,,,,
{16}3-8[8:1]/4x,,2,1,3,,6,,7-4[8:1]/8,,6x,5,7x,,3x,,
{16}1-5[8:1]/8,,2,4,1w5[8:1],,7x,,1,,{24},,,{16}8b/2b,,,,
{16}2x,6,8h[8:1],,5,1,7h[8:1],,4,8,6hx[8:1],,7x,1,5hx[8:1],,
{16}3,5,3,7,5,7,2x,1,2,7,8x,7,2,1,{24}2b,3,4,
{16}5x/6x-1[8:1],,7,8,6,,3,,2-5[8:1]/1,,3x,4,2x,,6x,,
{16}8-4[8:1]/1,,7,5,8-3[8:1]*-5[8:1],,2x,,8,,{24},,,{16}1b/7b,,,,
{16}7x,3,1h[8:1],,4,8,2h[8:1],,5,1,3h[8:1],,2,8,4,,
{16}7x/3x,,4,,65,,8x/2x,,7,1,6,2,5,3,{24}8b,7,6,
{16}5x/3x-8[8:1],,2,1,3,,6,,7-4[8:1]/8,,6x,5,7x,,3x,,
{16}1-5[8:1]/8,,2,4,1w5[8:1],,7x,,1,,{24},,,{16}3b/7b,,,,
{16}3x,4,1h[8:1],,3,2,5h[8:1],,4,8,6hx[8:1],,7x,1,5hx[8:1],,
{16}2,4,3,6,5,6,4x,5,2,8,3x,7,{24}1b,2,3,7,6,5,
{16}4x-8[8:1]/8x,,3,5,4b,,6,,8b-4[8:1],,7x,1,8bx,,3x,,
{16}1-4[8:1],,2,8,1b-6[8:1],,7x,,1bq6[8:1]*^4[8:1]/2b,,,,1b,,,,
{16}8bx/2bx,,,,3/4,,5b/1b,,,,5/6,,3/7,,1bV38[4:1]/5b,,
{16},,8-4[8:1],,4-7[8:1],,7V52[8:2],,6-1[8:1],,,,,,,,
{16}8b,,3,4,3,,5,4,5,,3,4,3,,6,5,
{16}6,,3,4,3,,6,5,6,5,7,4,8h[16:1],,8h[16:1],,
{16}2/8,,6,5,7,,3,4,2,,6,5,7,,3,4,
{16}2,,6,5,7,,4,5,3,6,2,7,1h[16:1],,1h[16:1],,
{16}1/7,,3,4,1,,6,5,8,,3,4,1,,6,5,
{16}8,,2,4,1,,7,5,8,,2,4,1h[16:1],,1h[16:1],,
{16}8/2,,6,4,8,,3,5,1,,6,4,8,,3,5,
{16}1,6,5,,5,7,,8h[16:1],,3,4,,4,2,,1h[16:1],
{16}6,5,2,3,7,6,3,4,5b/1bh[8:1],,{64}E5f,Cf,E1f,,{16},,,,,
{16},,,,,,,,,,,,,,,,
