&title=HIMITSUスパーク[SD]
&artist=カラスは真っ白
&first=0
&des=D.N.T.
&wholebpm=156
&lv_6=13
&inote_6=(156){1},
{1},
{16}6h[8:5],,,7,,,7b>4[8:3],,,,,,6,,,,
{16}7V51[4:1],,5,,7,,2,,3,,4,8,4,8,4,,
{16}3h[8:5],,,2,,,2b<5[8:3],,,,,,3,,,,
{16}2,4,2,,3h[8:1],,7,5,7,,6h[8:1],,1,5,1,5,
{16}2h[8:5],,,1,,,8b<4[8:3],,,,,,2,,,,
{16}1,,2-5[8:1],,5,,26,,7h[8:1],,6,,1,8,2,,
{16}7h[8:5],,,8,,,1bV37[8:3],,,,,,6,,5bs1[2:1]*s1[2:1],,
{8},,,,,2,2,,
{16}35,,4,,6,5,5,7h[8:1],,8,,2,1,2,1,,
{16}64,,5,,3,4,4,2h[8:1],,1,,7,8,7,8,,
{16}24,,3,,7,5,5,6h[8:1],,2,,3,4,3,4,,
{16}75,,6,,2,4,4,3h[8:1],,7,,6,5<4[4:3],6,5,,
{1}4b,
{16}7-4[16:1],,,1-5[16:1],,,8h[8:3],,,,,,4,,,,
{8}2-4[8:1]/6,,1-5[8:1]/2,,1/5pp8[2:1],,2,2,,3,3-6[8:1],,7p3[8:1],,78,,1V37[4:1],,17,,5,4,8,1s5[4:1]*s5[4:1],,6,6h[4:1],,4-8[8:1],,4b,,
{8}7-5[8:1]/3,,8-4[8:1]/7,,8/4qq1[2:1],,7,7,,6,6-3[8:1],,2q6[8:1],,21,,8V64[4:1],,48,,2,2,{16}3,4,2z6[4:1]*z6[4:1],,,,5,,,5,,,5-1[8:1],,,,5b,,,,
{8}2-5[8:1],,8-4[8:1]/2,,1pp5[2:1]/8,,5,5,,7,7-3[8:1],,4-1[8:1],,45,,6V48[4:1],,46,,2,3,6,5s1[4:1]*s1[4:1],,{16}2h[8:1],,,2,,,4-8[8:1],,,,4b,,,,
{8}7-4[8:1],,1-5[8:1]/7,,8qq4[2:1]/1,,4,4,,2,2-6[8:1],,5-8[8:1],,54,,3V51[4:1],,53,,7,6,{16}3,4,5s1[4:1]*s1[4:1],6,,,6h[8:1],,,6,,,2w6[8:1],,,,2b,,,,
{8}48,7v4[8:1],7,3v8[8:1],,7<4[8:1],,3>8[8:1],,7V51[4:1],,2-4[8:1],,2,8,,
{8}74,6>3[8:1],6,2<7[8:1],,6-3[8:1],6,2h[2:1],,1,8,8p4[8:1],,2,3,,
{8}51,2v5[8:1],2,6v1[8:1],,2>5[8:1],,6<1[8:1],,2V48[4:1],,7-5[8:1],,7,1,,
{8}2b/4b,,75,6,5h[8:3]/4,3,2,1bs5[4:1]*s5[4:1],,6,6-2[8:1],6,4b,,,37,
{16}8<4[4:1]/4,,,5h[16:3],,,,,3p7[8:1],,,3,,,6,,
{16}1V35[4:1]/5,,,6h[16:3],,,,,8z4[4:1]*z4[4:1],,4,,,,,,
{8}2-5[8:1],5,2,8,{16}7-3[8:1],,,3V57[16:5]/7V13[16:5],,,7,,,,,,,,,,5/8z4[4:1]*z4[4:1],,,3,,,2,,
{16}1>5[4:1],,,4h[16:3],,,,,6q2[8:1],,,6,,,3,,
{16}8V64[4:1]/4,,,3h[16:3],,,,,1s5[4:1]*s5[4:1],,5,,,,,,
{8}7-4[8:1],4,7,1,{16}2-6[8:1],,,6V42[16:5]/2V86[16:5],,,2,,,,,,,,,,
{12}1-5[8:1],5,5,1,,,
{16}3b/7b-4[8:1],,,,,,,,1p8[2:1]/5,,,,,,4,,,,6-3[8:1],,,,,,8q1[2:1],,,,,,,,
{16}7-4[8:1],,,,,,,,1p8[2:1]/5,,,,,,4,,,,6-3[8:1],,,,,,8h[2:1],,,,,,,,
{8}6,5,4,3,6,5,4,3h[4:1],,2-6[8:1],2,,4z8[4:1]*z8[4:1],,4,,
{8}6,5,4,3,6,5,4,3h[4:1],,1,31,84,84,75,7-3[8:1]/5-1[8:1],,
{4}7b/5b,,,{32},,,,,,,,6/3h[1:1],5,4,,,,,,{4},,,2<6[2:1],,,{32},,,,,,,,2/5h[1:1],3,4,,,,,,{4},,,
{4}7pp3[2:1],6,5,4,2pp6[2:1],1,8,7b,
{8}7b/5b,,24,3,4h[8:3]/5,6,7,8bz4[4:1]*z4[4:1],,3,3-7[8:1],3,5b,,,62,
{4}3bV58[4:1]/5bV38[4:1],,,,
{8}6bV41[4:1]/4bV61[4:1],,,,,2/8,,,
{8}7-4[8:1],4,7,1,{16}2-6[8:1],,,6V42[16:5]/2V86[16:5],,,2,,,,,,,,,,4/1s5[4:1]*s5[4:1],,,6,,,7,,
{16}8<4[4:1],,,5h[16:3],,,,,3p7[8:1],,,3,,,6,,
{16}1V35[4:1]/5,,,6h[16:3],,,,,8z4[4:1]*z4[4:1],,4,,,,,,
{8}2-5[8:1],5,2,8,{16}7-3[8:1],,,3V57[16:5]/7V13[16:5],,,7,,,,,,,,
{16}4h[8:3],,3,2,1,8,7,6,5,4,
{16}3b-6[8:1]/2b-7[8:1],,,,,,,,1b>4[8:1]/5b<8[8:1],,,1b/5b,,,,,
{16}1V37[4:1],,,4h[16:3],,,,,5s1[4:1]*s1[4:1],,8,,,,,,
{16}7-5[8:1],,8-4[8:1],,7,,8,,7-3[8:1],,,3V58[16:5]/7V14[16:5],,,7,,,,,,,,,,1s5[4:1]*s5[4:1]/5,,,2,,,2,,
{16}1V35[4:1],,,6h[16:3],,,,,7p3[4:1],,,1h[16:3],,,,,
{16}8V62[4:1],,,5h[16:3],,,,,4z8[4:1]*z8[4:1],,1,,,,,,
{16}2-4[8:1],,1-5[8:1],,2,,1,,2-6[8:1],,,6V41[16:5]/2V85[16:5],,,2,,,,,,,,
{16}2h[4:1]/4h[8:3],,,,,,{32}2qq5[2:1],1,8,7,6,,,,
{8}2b,,4,,3,,2,2-5[8:1],,8,8-4[8:1],,1-5[8:1],,17,,
{16}67,,,4z8[16:5]*z8[16:5]/6,,,24,,,,,,3b,,,,
{16}32,,,5s1[16:5]*s1[16:5]/3,,,75,,,,,,6b,,,,
{16}35,,4,,6,5,5,7h[8:1],,8,,2,1,2,1,,
{16}64,,5,,3,4,4,2h[8:1],,1,,7,8,7,8,,
{16}24,,3,,7,5,5,6h[8:1],,2,,3,4,3,4,,
{16}57,,24,,1,8,2,7b,
