&title=気ままな天使たち
&artist=わたてん☆5/TVアニメ「私に天使が舞い降りた!」
&first=0
&des=?
&clock_count=4
&lv_5=12+
&inote_5=(126)
{4}
,,,,
,,,1b,
6h[4:4],B5/B6,,B1/B2,
3h[4:4],B3/B4,,B7/B8,
5<1[4:2],B6/E7,,A3/D3,
{8}
4>1[4:1],,B1/E1,,5h[4:1],8,2bx,,
{16}
7<3[4:1],,,8,,,1,,2>6[4:1],,,1,,,8,,
{8}
7xh[4:1],E5/B5,1xh[4:1],B3/B4,8xh[4:1],B5/B6,2x,,
{16}
3>7[4:1],,,4,,,5,,6<2[4:1],,,5,,,4,,
{8}
3,2/4,3,4/6,5q4[4:1],,4>5b[4:4],,1xh[4:4],,,,,,,,
,,2/4,3/5,4-1[8:1]/6,,7,,
8,1,2/C,,
{16}
4/3,,,6/5,,,A8/A1/D1/D8/D2/E8/E1f/E2/B8/B1,,
{8}
,5/6,4/5,3/4,
{16}
2h[16:3],,,4h[16:3],,,B6/E6/B5,,
{8}
,1,8,7,
{16}
6h[16:3],,,4h[16:3],,,2,,
2x<6[4:1],,,3,,,4,,5,,4x/5x,,3x,3x,4x,,
2x/5x,,3,4,3,,2h[8:4],,E3,,,E5,,,E7,,
6x/1x,,7,8,7,,6h[8:4],,E7,,,E5,,,E3,,
2x/4x,,,5x/7x,,,Ch[8:3]/1x,,,,B1/B2/E2,,B1/B2/E2,,,,
1x/8x,,1x/8x,,2x/7x,,5x,4xh[16:5],,,E8/B7/B8,,E8/B7/B8,,,,
{8}
4xh[4:1]/3x,2,3h[4:1],6,7h[4:1],4,5,6,
8xh[4:1]/7x,6,7h[4:1],2,3h[4:1],8,1,2,
{16}
3/5,,7,,4/6,,2,2,5,,4<6[8:1],,3,,2/4,,
,,4<7[8:1],,3,,2/4-1[8:1],,,,E7/B6,,,,A8f/A7/A1/D1/D8/E1/E8/B1/B8/B7,,
{8}
,1x,2/8x,2,2x/B4/E4,2,2x/B6/E6,2,3x/7x,7,B5/E5/7x,7,E3/B2/8x,8,
{16}
1,1,7,,
2/5,,3-8[8:1],4,3,,B6/B5,,,,7>4[4:1],8,7,,1b,,
,,8x,,2x/6x,,4b/8b,,,,,,
{8}
5<2[4:1],,2<5[4:1]/5,,3,4-1[8:1],,4q8[8:1],,4,,1-5[8:1]/7,6,1/5,,7-3[8:1],4,3/7,,
2pp1[4:1],4x,2/6,,5x>2[8:1]*<8[8:1],,5,,1,8,A3/E4/A6/E6,B2/B7/A2/A7,,
8<6[8:1]*>2[8:1],,8-4[8:1],,3,2>7[4:1],,7<2[4:1],,8,,7<4[8:1],8,1/7,,3>8[8:1],4,3/5,,
6>3b[8:1],7,1h[4:1],,4x-1[8:1]*-7[8:1],,4,,8,1,A6/E6/A3/E4,B7/B2/A7/A2,1x/8x,
8x/1x>6[4:1],,6>1[4:1]/1,,7,8-5[8:1],,8q4[8:1],,8,,5<8[8:1]/3,2,5/1,,3<6[8:1],8,7/3,,
7qq8[4:1],5x,7/3,,1<6[8:1]*>4[8:1],,1,,5-1[8:1],4-8[8:1],5,4,,
7-3[8:1],,3/7V51[4:1],,2,2,,3V15[4:1],,3/7,,6<1[8:1],5,4/6,,3<6b[8:1],2,8h[4:1],,
1,2,3<5[8:1]/7<5[8:1],,3>7b[16:3]/7,,
3b/7b,,6,5,4,3,A2/E2/D2/A7/E8/D8,A2/E2/D2/A7/E8/D8,,
{16}
3/4,,2/5,,3/4,,5,4-1[8:1],,,7,,7,,,,
1/8,,1/8,,2/7,,8,1>4[8:1],,,6,,6,,,,
6/5,,7/4,,6/5,,4,5-8[8:1],,,2,,2,,,,
1/8,,2/7,,3/6<3b[4:1],,5,Cf,,,,,,,,,E
