&title=エンド・オブ・フェイク!
&artist=ミ瑞(みみず)
&first=0
&des=nomiko
&lv_5=14.0
&des_5=nomiko
&inote_5=
(210){4},,,,,,,,B6/B5/B3/B4,
B1/E2/E8/B8,{16}E7,E6,E5,E4,E3,E2,E1,E8,
4xh[16:3],,,6xh[16:3],,,{8}2x>4[4:1],,5,6,7,
{16}B4,B3,{8}E3,{16}B8,B7,{8}E7,{16}B2,B3,B4,B5,B6,B7,B8,B1,
5xh[16:3],,,3xh[16:3],,,{8}7x<5[4:1],,4,3,2,
{16}B5,B6,{8}E7,{16}B1,B2,{8}E3,{16}B7,B6,B5,B4,B3,B2,B1,B8,
4xh[16:3],,,6xh[16:3],,,{8}2x>4[4:1],,5,6,7,
{16}B4,B3,{8}E3,{16}B8,B7,{8}E7,{16}B2,B3,B4,B5,B6,B7,B8,B1,
5xh[16:3],,,3xh[16:3],,,{8}7x<5[4:1],,4,3,2,
{16}B5,B6,{8}E7,{16}B1,B2,{8}E3,{16}B7,B6,B5,B4,B3,B2,B1,B8,
{4}4xh[16:1],{8}6xh/3xh,2x>4[4:1],,5,6,7,
{16}B4,B3,{8}E3,{16}B8,B7,{8}E7,{16}B2,B3,B4,B5,B6,B7,B8,B1,
5x,,,6x/3,,,{8}4b/7x<5[4:1],,4,3,2,
{16}B5,B6,{8}E7,{16}B1,B2,{8}E3,{16}B7,B6,B5,B4,B3,B2,B1,B8,
4x,,,3x/6,,,{8}5b/2x>4[4:1],,5,6,7,
{16}B4,B3,{8}E3,{16}B8,B7,{8}E7,{16}B2,B3,B4,B5,B6,B7,B8,B1,
5x,,,6x/3,,,{8}4b/7x<5[4:1],,4,3,2,
{16}B5,B6,{8}B7,{16}B1,B2,{8}B3,{16}B6,B5,B4,B3,B2,B1,B8,B7,
{4}3,4,4,4-2[8:1],
4/7,1,1,1/6V48V62[2:3],
1/6x,3,3,3,
1,2,3,1/3h[8:1],
8b,7,7,7-5[8:1],
7/3h[4:1],4,{8}3h[8:1],5-7[8:1],2h[8:1],5,
{4}1x-4[8:1],8,7/5x-2[8:1],6,
7/1s5[8:1],7-3[8:1],7,{16}5x,4,3,2,
{4}1/6h[4:1],1,1/7h[2:1],1,
2,2/8,2/7,2/6V48V62[2:3],
6x/1h[8:1],1h[8:1],3h[8:1],3h[8:1],
1h[8:1],2h[8:1],3h[8:1],1/3h[8:1],
8b,7/4,6/3,5/2,
6h[4:1]/1-3[8:1],1,7/5-3[8:1],8/5,
7/1x-4[8:1],6,7/5x-2[8:1],8,
7/1-5[8:1],7,{16}4b/7h[2:1],3,2,1,{8}8,{16}6,5,
{4}4-7b[8:1],5bx/4bx,,,{1}8x>3[2:1]/4x<7[2:1],
{4}5x/1x,{8}3,7,,2/1,{4}2/1,
{2}1b/6b,8/7-4[4:1],
2>5[2:1],5p8[2:1],
{1}8x-5[2:1]*p4[2:1],
{8}6xh[8:3]/3xh[4:1],,,,,3,2,1,
{2}7/8V62[2:1],2V48[8:3],
{4}6,5,5/1,6/2,
7h[4:1]/3-5[8:1],3,8h[4:1]/3-1[8:1],3,
6h[4:1],{8}8,5,1,6,2,7h[8:1],
{4}3V52[4:1],1,8V64[2:1],3/8,
2,1h[2:1],3,4,
5/1>4[4:1],6,7,8/5,
{2}E7/A7/A6/B7/B6,B8/B5/E6/E8/E5/A5/A8/E1,
{8}A1/D2/A2/D3/A3/D4/A4/E4/E2/B1/B2/B4/E3f/B3,,,,,1bx-6b[8:1],{4}6bxV82b[4:1],
4b,6b,B2/B6/B8/B4/Cf,{8}1x,2x,
,3xh[4:1]/1x<6[8:1],,1>4[8:1],2,1,8,8,
1-5[8:1],1,3-7[8:1],3,4,5,6,8x-4b[8:1]/7x-3b[8:1],
,8x/7x,,5bx/2bx,,8bx-3b[8:1],{4}3bxV17b[4:1],
5b,3b,B1/B5/B7/B3/Cf,{8}8x,7x-4V68[4:1],
,7x/2xh[8:1],,1>4[8:1],1,1,8,7h[8:1],
,2-6[8:1],2,8-4[8:1],8,3,2,5/1w5b[8:1],
,1b,,2bxh[8:3],5b,6b,7b-3-6b[4:1],8b,
{4}E2f,1x-5[8:1],1b/7x-3[8:1],7b/2x-5V31[4:1],
{8}2b/8xh[4:1],,,7,{4}8/6-1[8:1],2,
{8}3-5[8:1],3,2-6[8:1],2,,8,{4}1>4[8:1],
1<6[8:1],1,1h[4:1],{16}3x,4,5,6,
{8}7x/3x,7x>2[8:1]/3x<6[8:1],,3b/7b,,,,2-6[8:1],
8-4[8:1],2,{4}8w4b[8:1],8bx/B7/C/B3/B1/B5,2xh[8:1]/6xh[8:1],
{8}3-1[8:1],4,3x/7-5[8:1],8,7x/2-8[8:1],3,2x/6>4b[8:1],7,
6b,{16},,,,,,,,7x,8x,1x,2x,3x,4x,
{8}8b/5xh[4:1],,,8/4h[4:1],,,3h[8:1],7,
6/1h[4:1],,,5/2h[4:1],,,3h[8:1],6,
7/2h[4:1],,,8/1h[4:1],,,2h[8:1],7p3>8[8:5],
3h[4:1],,,4h[4:1],,,{4}3h[8:1],
{8}4b/8h[4:1],,,4/7h[4:1],,,6h[8:1],3,
2/5h[4:1],,,1/6h[4:1],,,7h[8:1],2,
6h[4:1]/3-1[8:1],,,5h[4:1],,,6h[8:1],1,
7h[4:1]/2-4[8:1],,,8h[4:1],,,7h[8:1],4,
3-1[8:1],3,{4}3/5-7[8:1],5/2-4[8:1],2/6-8[8:1],
6/3V52[4:1],3/7,8-6[8:1]*-5[8:1],8,
{8}2-5[8:1],3,6-1[8:1],7,4,3,2,8x/1x,
,5,{4}5-2[8:1]*-8[8:1],{2}5bx,
{8}1x/7x,1>4[8:1]/7<4[8:1],,7b/1b,,C/B3/B5/B6/B4,,8x/2x,
1,1,{4}2x-6b[8:1]/8x-4b[8:1],8b/2b,{8}7/3,2,
6-8[8:1],5,6x/2-4[8:1],1,2x/7-1[8:1],6,7x/3<5b[8:1],2,
3b,{24},,,,,,,,,,,,4/8,3/7,2/6,{4}5/1-5b[8:1],
1bx/7bx-3b[8:1],7bx/1bxw5b[8:1],1bx/B8/B4/B2/B6/Cf,{8}8x,7x-4[8:1]/1x-5[8:1],
,7x/1x<6[8:1],,3x/1>4[8:1],2,1,7x,8,
1-5[8:1],1,3-7[8:1],3,4,5,6,1b-5b[8:1],
8b-3b[8:1],1b,8b,4b,{32},,,,4,5,6,7,8b-4b[8:1],1,{16}2,,,{4}8bx/2bx-6b[8:1],
2bx/8bxw4b[8:1],8bx/B1/B5/B7/B3/Cf,{8}1x,2x-5V31[4:1],
,2x/6x,7,8<5[8:1],8,8,1,2h[8:1],
,7-3[8:1],7,1-5[8:1],1,6,7,4x/8bxw4b[8:1],
,8b,,7xh[8:3],4b,3b,2bpp4>1b[4:1],1b,
{4}B7f,E2/D2/A1/8-4[8:1],8/2-6[8:1],2/7-4V68b[4:1],
{8}7/1h[4:1]/B7/B6/E7,,,2,{4}1/3-8[8:1],7,
{8}6-4[8:1],6,7-3[8:1],7,1,1,8bx<5b[8:1],2,
8bx>3b[8:1],1,8bx,7bh[8:3],{16},,,,5,4,3,2,
{8}1/5,1>4[8:1]/5<8[8:1],,5b/1b,,,,7-3[8:1],
1-5[8:1],7,{4}1w5b[8:1],1bx/B2/C/B6/B8/B4,3xh[8:1]/7xh[8:1],
{8}6-8[8:1],5,6x/2-4[8:1],1,2x/7-1[8:1],6,7x/3<5b[8:1],2,
{2}3b,{4}3h[4:1],{24}2x,1x,8x,7x,6x,5x,
{16}4x/8x-3[8:1],,,6,,,{8}7,,8h[8:1],{4}4h[8:1],
{16}7x,6,5,4,8x,7,6,5,1x,8,7,6,{4}2b,
{16}1/4-7[8:1],,,2,,,{8}3,,4h[8:1],{4}8h[8:1],
{16}3x,2,1,8,4x,3,2,1,5x,4,3,2,{4}6b,
{16}5/1>4[8:1],,,6,,,{8}7,,8h[8:1],{4}4h[8:1],
{16}7x,6,5,4,8x,7,6,5,1x,8,7,6,{4}2b,
{16}1/5<8[8:1],,,2,,,{8}3,,4h[8:1],{4}8h[8:1],
{16}3x,2,1,8,4x,3,2,1,5x,4,3,2,{4}6b<1b[8:1],
3h[8:1],{8}4,4,{16},,7/3h[4:1],6,{4}5,
{16}2x,4,2,4,3,5,3,5,{48}A4,D5,A5,D6,A6,D7,A7,D8,A8,D1,A1,D2,{4}6b/A2f,
{16}6h[16:3],,,4h[16:3],,,{8}8xh[2:1],{16},,2,3,{4}4,
{16}7x,5,7,5,6,4,6,4,{48}A5,D5,A4,D4,A3,D3,A2,D2,A1,D1,A8,D8,{4}3b/A7f,
{16}3h[16:3],,,5h[16:3],,,{8}1xh[2:1],{16},,7,6,{4}5,
{16}2x,4,2,4,3,5,3,5,{48}A4,D5,A5,D6,A6,D7,A7,D8,A8,D1,A1,D2,{4}6b/A2f,
{16}6h[16:3],,,4h[16:3],,,{8}8xh[2:1],{16},,2,3,{4}4,
{16}B7,B6,{8}B5,{16}B1,B2,{8}B3,{16}7x,6x,{8}5xh[8:3],{4}2bx-6b[8:1],
E
