&title=spiral
&artist=LONGMAN
&first=0
&des=MYOU
&lv_5=13
&inote_5=(122)
{1},
{1}4q5[2:1]/5,
{2}3q6[2:1]/6,7xh[2:1],
{1}2qq7[2:1],
{2}1>4[8:1]/8<5[8:1],2xh[2:1],
{48}4qq5[2:1],A5,D6,A6,,,{8},{4},,,
{48}4>5[2:1],A5,D6,A6,,,{8},{4},7xh[2:1],,
{48}5pp4[2:1],A4,D4,A3,,,{8},{4},,,
{48}5<4[2:1],A4,D4,A3,,,{8},{4},2xh[2:1],,
{48}5<4[2:1]*>6[2:1],A6,D7,A7,,,{8},{4},,,
{48}5>6[2:1],A6,D7,A7,,,{8},{4},7xh[2:1],,
{48}4>5[2:1]*<3[2:1],A3,D3,A2,,,{8},{4},,,
{48}4-8[16:3],A3,D3,A2,,,{8},{4},{16}2x,,34,,6,6,5,,
{16}5b/4b,,2,,4h[8:1]/3,,1,4,2,4,3,,45,,6,,
{16}57,,8,,4h[8:1]/6,,7,4,6,4,5,,54,,2,,
{16}34,,1,,2/3h[8:1],,1,3,2,1,3,,48,,6,,
{16}54,,7,,6/5h[8:1],,7,5,6,8,5,,14,,2,2,
{16}1b,,48,,7h[8:1]/5,,8,7,1<6[8:1],8,2,,4,,2,,
{16}17,,46,,3h[8:1]/5,,1,3,8>3[8:1],2,7,,6,,8,,
{16}17,,26,,3/5h[8:1],,2,8,3,7,4,6,1hb[4:1],,,,
{8}A5f/B5/B4/B3/B2/B1/B8/B7,,4x/8x,4x/8x,3x/7x,3x/7x,2x/6x,2x/6x,
{16}1xb/5xb,,1xb/5xb,,E3/D3,E7/D7,E5/D5,E1/D1,C,,,,2-5[8:1]/7-4[8:1],,,,
{8}2bqq7[32:9]/7b,,,6,5-1[8:1],4,2,4w8[8:1],
{8},4,,8,65,7,5/4-8[8:1],2,
{8}4bqq6[16:4]/3b,,,7,8-4[8:1],1,3,1w5[8:1],
{8},1,,{16}3,4,2,4,1,,28,,7,7,
{8}5b,4q8[8:1]/6,3,2h[4:1]/4,,1v8[8:1],8>6[4:1],7h[8:2],
{8},,7,{16}6,5,7,5,8,,17,,2,2,
{8}4b,3/5>1[8:1],6,5/7h[4:1],,{32}8bqq1b[4:1],1,2,3,4,5,6,7,B8f,,,,
{8},,2b/8b,{16}3,4,2,5,4,5,1,6,5,6,
{8}8bpp3[4:1],,,6,5<3[4:1],4,2,4w8[8:1],
{8},4,,71,24,1,4/5-1[8:1],8,
{8}5bpp3[16:4]/7b,,,2,1>7[4:1],8,6,8w4[8:1],
{8},8,,{16}6,5,7,4,8,,71,,2,2,
{8}4bqq5[4:1],,7,6>3[8:1],,6pp4[4:1],,2h[4:1],
{8},,35,{16}3,4,2,5,1-5[8:1],,28,,7>2[8:1],,
{8}6b,4-1[8:1],3,8p4[8:1],6b,3h[4:1],,{16}6,6,
{8}4x,3x/5x,4x/8x,{16}2,1,3,8,1,8,4,7,8,7,
{8}5b-3[8:1],,6-2[8:1],,4-7[8:1],,3-8[8:1],,
{8}5-1[8:1],,6-8[8:1],,4-1[8:1],,3q5[4:1],,
{8}8,,6,6pp4[4:1],,4>6[4:1],,1h[4:1],
{8},,1-5[8:1]/5,,6,7,18,{16}2,6,
{8}4<6[8:1],,3q7[8:1],,5>2[8:1],,6p1[8:1],,
{8}4V25[4:1]*pp5[4:1],,,,,4,35,2-5[8:1]/6pp8[8:1],
{8},,,4>6[4:1],,6<4[4:1],,5h[4:1],
{8},,56,7,48,3,21,{16}7,3,
{8}5b>2[8:1],,2q6[8:1],,1,1,28,28,
{8}3/7<4[8:1]*p3[8:1],,7,,5-1[8:1],1-6[8:1],2,,
{8}4-8[8:1],8-3[8:1],7,,5-1[8:1]*-2[8:1],6,5,,
{8}4-8[8:1]*-7[8:1],3,4,,16,2V46[4:1],4V68[4:1],6V82[4:1],
{8},8,,6,5,4V68V24[16:5]*V28V64[16:5],,4,
{8},,,35,2/6>3[8:1],1,8,1,
{16}82,,73,,6/4h[8:1],,7,1,6,2,5,3,4h[8:1],,5,,
{16}46,,37,,2/8h[8:1],,3,5,2,6,1,7,5-1[4:15]*-1[4:15],6,3,8,
{1},
{1},
{1},
{1},
{8}8-4[4:3],,,,,,,3qq6[4:3],
{1},
{8}A5/D6/A4/D4/D5,,,,,,,{24}1x/8x,2x/7x,3x/6x,
{8}4xb/5xb,4x/6x,2x/5x,3x/7x,1x/6x,4x/8x,{16}E3/D3,E7/D7,E1/D1,E5/D5,
{8}Chf[4:1],,8b<3b[16:3],,,2,1,7-3[8:1]/8-4[8:1],
{8},78,,25,34,8,6/5v8[8:1]*v2[8:1],1,
{8}5bpp3[16:4],,,2,1>4[32:3],8,7,{32}8xh[8:5]/5xb,6x,7x,,
{32}1x,2x,3x,4x,5x,6x,7x,,1x,2x,3x,4x,5x,6x,7x,,{4}1xw5[8:1],1x,
{8}8b/7b,1p4[8:1]/6,2,3h[4:1],,1>8[4:1],2/8,7h[4:1],
{8},,6,{16}2,1,3,8,4-8[8:1],,35,,7V53[8:1],,
{8}6b,2v8[8:1],1,5-1-7[32:5]*-1-3[32:5],6b,,,{16}4,4,
{8}3x/5x,7x/4x,5x/1x,{16}7,8,6,5,8,1,5,4-8[16:1],1,2,
{128}4bq5[1:1]*>5[1:1],Cf,
