&title=一番街コスモナウト
&artist=sasakure.UK feat. そらこ
&first=0.02
&des=COSMONAUT
&lv_5=13
&inote_5=(160)
{4},,,,
{16}
2-4[8:3],,,,
,,,,
,,,,
,,8-6[8:3],,
,,,,
,,,,
,,,,
,,,,
1-5[8:4],,,,
,,,,
,,,,
,,1-5[8:4],,
,,,,
,,,,
,,,,
,,,,
2-4[8:3],,,,
,,,,
,,,,
,,8-6[8:3],,
,,,,
,,,,
,,,,
,,,,
1-5[8:4],,,,
,,,,
,,,,
,,1-5[8:4],,
,,,,
,,,,
,,,,
,,,,
2h[8:4]/8,,,,
,,E5,,
E6,,E7,,
E8,,E1/3h[8:5],,
,,E2,,
,,E1,,
,,,,
,,,,
7h[8:4]/5,,,,
,,E1,,
E2,,E3,,
E4,,E5/8h[8:5],,
,,E6,,
,,E7,,
,,E6,,
E7,,,,
7h[8:4]/1,,,,
,,E5,,
E4,,E3,,
E2,,E1/6h[8:5],,
,,E8,,
,,E1,,
,,,,
,,,,
2h[8:4]/4,,,,
,,E1,,
E8,,E7,,
E6,,E5/1-4[4:1],,
,,C,,
,,E1,,
,,,,
,,,,
3xp7^2[8:4],,,,
,,,,
,,,,
,,7xp3^6[8:4],,
,,,,
,,,,
,,,,
,,,,
3xp7^2[8:4]/7xp3^6[8:4],,,,
,,,,
,,,,
,,7x>3v5[8:4],,
,,,,
,,,,
,,,,
,,,,
2x^7q3[8:4],,,,
,,,,
,,,,
,,6x^3q7[8:4],,
,,,,
,,,,
,,,,
,,,,
6x^3q7[8:4]/2x^7q3[8:4],,,,
,,,,
,,,,
,,4xv2<6[8:4],,
,,,,
,,,,
,,,,
,,,,
5x-8^6[8:4],,,,
,,,,
,,,,
,,1xv4^2[8:4],,
,,,,
,,,,
,,,,
,,,,
5x-8^6[8:4]/1xv4^2[8:4],,,,
,,,,
,,,,
,,6x<2v4[8:4],,
,,,,
,,,,
,,,,
,,,,
7xpp8-5[8:4],,,,
,,,,
,,,,
,,7xpp8-4[8:4],,
,,,,
,,,,
,,,,
,,,,
7xpp8-5[8:4]*pp8-4[8:4],,,,
,,,,
,,,,
,,5xv3>7[8:4],,
,,,,
,,,,
,,,,
,,,,
7h[8:1]/4bq5[4:2],,,,
7h[8:1],,,,
7h[8:1],,,,
7h[8:1],,,,
7h[8:1]/C,,,,
7h[8:1],,,,
7h[8:1]/B1/B2,,,,
7h[8:1],,,,
5h[8:1]/2qq6[4:2],,,,
5h[8:1],,,,
5h[8:1],,,,
5h[8:1],,,,
5h[8:1]/7pp3[4:2],,,,
5h[8:1],,,,
5h[8:1],,,,
5h[8:1],,,,
3h[8:1]/4z8[4:2],,,,
3h[8:1],,,,
3h[8:1],,,,
3h[8:1],,,,
1h[8:1]/7s3[4:2],,,,
1h[8:1],,,,
1h[8:1],,,,
1h[8:1],,,,
1,2,3,4,1,2,3,4,
5,6,7,8,5,6,7,8,
5,6,7,8,5,6,7,8,
1,2,3,4,1,2,3,4,
2h[8:1]/5b-1^8-4[4:2],,,,
2h[8:1],,,,
2h[8:1],,,,
2h[8:1],,,,
2h[8:1]/C,,,,
2h[8:1],,,,
2h[8:1]/B8/B7,,,,
2h[8:1],,,,
4h[8:1]/7v2-8v3[4:2],,,,
4h[8:1],,,,
4h[8:1],,,,
4h[8:1],,,,
4h[8:1]/2v7-1v6[4:2],,,,
4h[8:1],,,,
4h[8:1],,,,
4h[8:1],,,,
5bv2-4[8:3]*v8-6[8:3],,,,
,,,,
,,,,
5bV71V75[4:3]*V31V35[4:3],,,,
,,,,
,,,,
,,,,
,,,,
4bpp6^5[8:3]*qq3[8:3],,,,
,,,,
,,,,
4b<4[4:3]*>4[4:3],,,,
,,,,
,,,,
,,,,
,,,,
2xb^7[8:1],,7x^4[8:1],,
,,,,
7x^4[8:1],,4x^1[8:1],,
,,,,
4x^1[8:1],,1x^7[12:1],,
,,,,
6,5,4,3,
2/C,,,,
7x^2[8:1],,2x^5[8:1],,
,,,,
2x^5[8:1],,5x^8[8:1],,
,,,,
5x^8[8:1],,8x^2[12:1],,
,,,,
E3,E2,E1,E8,
E7/C,,,,
3x^8[8:1],,8x^5[8:1],,
,,,,
8x^5[8:1],,5x,,
4,3,2,1,
8x^5[8:1],,5x^2[8:1],,
,,,,
5x^2[8:1],,2x^7[8:1],,
,,,,
2x^7[8:1],,7x^5[12:1],,
,,,,
48,37,26,15,
48,,,,
B8/E1/B1,,B6/E7/B7,,
B4/E5/B5,,B2/E3/B3,,
,,,,
,,,,
7xb-2[8:1],,2x-5[8:1],,
5x,,,,
2x-5[8:1],,5x-8[8:1],,
8x,,,,
5x-8[8:1],,8x-3[8:1],,
3x,,,,
8x-3[8:1],,3x-6[8:1],,
6x,,,,
3x-6[8:1],,6x-1[8:1],,
1x,,,,
6x-1[8:1],,1x-4[8:1],,
4x,,,,
1x-4[8:1],,4x-7[8:1],,
7x^2^7[16:5],,,,
,,,,
,,,,
2x-7[8:1],,7x-4[8:1],,
4x,,,,
7x-4[8:1],,4x-1[8:1],,
1x,,,,
4x-1[8:1],,1x-6[8:1],,
6x,,,,
1x-6[8:1],,6x-3[8:1],,
3x,,,,
1,2,3,4,1,2,3,4,
5,6,7,8,5,6,7,8,
5,6,7,8,5,6,7,8,
1,2,3,4,1,2,3,4,
5bpp4z8[8:5]/3bqq4z8[8:5],,,,
,,,,
,,,,
,,,,
2xb-5[8:1]/1xb,,,,
5,,6,,
7-4[8:1],,8,,
1,,2,,
3-8[8:1],,4,,
5,,6,,
7-4[8:1],8,6,1,
,,,,
{32}4x/3x,D5,A5,D6,A6,D7,A7,D8,
A8,,,,,,,,
5x/6x,D5,A4,D4,A3,D3,A2,D2,
A1,,,,,,,,
4x/3x,D5,A5,D6,A6,D7,A7,D8,
A8,,,,,,,,
5x/6x,D5,A4,D4,A3,D3,A2,D2,
A1,,,,,,,,{16}
7-4[8:1]/8,,,,
4,,3,,
2-5[8:1],,1,,
8,,7,,
6-1[8:1],,5,,
4,,3,,
2-5[8:1],1,3,8,
,,,,
{32}4x/6x,D5,A5,D6,A6,D7,A7,D8,
A8,,,,,,,,
5x/3x,D5,A4,D4,A3,D3,A2,D2,
A1,,,,,,,,
4x/6x,D5,A5,D6,A6,D7,A7,D8,
A8,,,,,,,,
5x/3x,D5,A4,D4,A3,D3,A2,D2,
A1,,,,,,,,{16}
2-5[8:1]/8,,,,
25,,6,,
7-4[8:1],,8,,
71,,2,,
3-8[8:1],,4,,
35,,6,,
7-3[8:1],1,5,3,
7,,,,
{32}4xq1[4:1]/2,D5,A5,D6,A6,D7,A7,D8,
A8,,,,,,,,
5xp8[4:1],D5,A4,D4,A3,D3,A2,D2,
A1,,,,,,,,
4xq1[4:1],D5,A5,D6,A6,D7,A7,D8,
A8,,,,,,,,
5xp8[4:1],D5,A4,D4,A3,D3,A2,D2,
A1,,,,,,,,{16}
7-4[8:1],,,,
72,,3,,
2-5[8:1],,1,,
28,,7,,
6-1[8:1],,5,,
64,,3,,
2-6[8:1],8,4,6,
2,,,,
{32}4xq1[4:1]/8x,D5,A5,D6,A6,D7,A7,D8,
A8,,,,,,,,
5xp8[4:1],D5,A4,D4,A3,D3,A2,D2,
A1,,,,,,,,
4xq1[4:1],D5,A5,D6,A6,D7,A7,D8,
A8,,,,,,,,
5xp8[4:1],D5,A4,D4,A3,D3,A2,D2,
A1,,,,,,,,{16}
2-4[8:3],,,,
,,,,
,,,,
,,8-6[8:3],,
,,,,
,,,,
,,,,
,,,,
1-5[8:4],,,,
,,,,
,,,,
,,1-5[8:4],,
,,,,
,,,,
,,,,
,,,,
2-4[8:3],,,,
,,,,
,,,,
,,8-6[8:3],,
,,,,
,,,,
,,,,
,,,,
1-5[8:4],,,,
,,,,
,,,,
,,1$`5?-1b[8:7],,
,,,,
,,,,
,,,,
,,,,
&inote_6=
