&title=ファイナルレター
&artist=かねこちはる
&first=0.53
&des=Ed@XF
&freemsg=
&des_5=Ed@XF
&wholebpm=205
&first_1=
&first_2=
&first_3=
&first_4=
&first_5=
&seek=
&wait=
&amsg_first=
&tap_ofs=
&hold_ofs=
&slide_ofs=
&break_ofs=
&amsg_content=ED~R@SO4
&lv_1=4
&lv_2=6
&lv_3=8+
&lv_4=11
&lv_5=13
&inote_1=(205)
{1}1,2,3,4,5,6,7,8,8<5[1:1],,4>1[1:1],,
8h[1:1],,1h[1:1],,1,,1,,8,,7,,6,6,5,5,4,4,3,3,2,2b,
1-5[1:1],,4-8[1:1],,7^2[1:1],,3^6[1:1],,
{2}7,7,8,8,1,1,2,2,3h[2:1],,3,4,5,6,7,8,1-4[1:2],,,,5-8[1:2],,,,
,,1h[1:1],,8,8,7,7,6,6,5,5,4,3,2,3,4,5,6,7,
8b,,1b,,2,3,4,5,6,7,6,5,4>1[1:1],,8<5[1:1],,
4,4,3,3,2,2,1,1,8,8,7,7,,6,,6,,5,,5b,,,4,,3,,2,,1-5[1:1],,,,5,,6,,7,7,8,8,1,1,2,2,3,5,7,1,2,4,6,8,1>5[1:2],,,,
&inote_2=(205)
{2}
,1,,2,,3,,4,,5,,6,,7,,8,
,1h[4:1],,2h[4:1],,3h[4:1],,4h[4:1],5h[4:1],6h[4:1],7h[4:1],8h[4:1],
{4}1,2,3,4,5,6,7,8b,
{2}1,1,21,,3,3,34,,5,5,65,,7,7,87,,
1,1,8,8,7,7,6,6,5,5,4,4,3,3,2,2,1,1,1b/8b,,
{1}
8<5[1:1],,4>1[1:1],,
8-4[1:1],,4>6[1:1],,
{4}1,1,21,,8,8,87,,6,6,56,,4,4,43,,2-7[2:1],,,,
8,7,6,5,4,3,2,1,8,8,8,8b<1[1:4],,,,,,,,,,,,,,,,,
,,,,18,18,27,,
{2}
1,21,2,23,3,43,4,54,5,65,6,67,7,78,8,18,
{1}1h[2:1],2h[2:1],3h[2:1],4h[2:1],5h[2:1],6h[2:1],7h[2:1],8h[2:1],
{4}1,1,1,,8,8,8,,7,7,7,,6,6,6,,7,7,7,,8,8,8,,1,,,,2,,,,3,,,,4,,4b,,
5,,,,6,6,6,,5,5,5,,4,4,4,,3,3,3,,2,2,2,,1,1,1,,8,,,,1,1,1,,2,2,2,,3,3,3,,4,4,4,,5,5,5,5,6,6,6,6,7,7,7,7,8,8,8,8,1,2,3,4,5,6,7,8b,{1},,,E
&inote_3=(205)
{2}1,1,2,2,3,3,4,4,5,5,6,6,7,7,8,8,
{4}1,2,3,4,5,6,7,8,8,7,6,5,4,3,2,1,
1,82,7,16,2,38,6,51,1>4[2:1],,5<8[2:1],,1-5[2:1],,,8b,
75,,46,,3/5-1[2:1],,,,42,,35,,4-8[2:1]/6,,,,17,,26,,5-1[2:1]/3-7[2:1],,,,28,,37,,6-2[2:1]/4-8[2:1],,,,
8,7,6,5,4,4,53,,1,2,3,4,5,5,64,,54,63,27,8b-5[2:1]/1b-4[2:1],,,,,5<8[2:1],,,,4>1[2:1],,,,1pp4[1:1]/8qq5[1:1],,,,,,2b/7b,,
{2}1>4[3:1],5<8[3:1],1>4[3:1],5<8[3:1],4>1[3:1],8<5[3:1],4>1[3:1],8<5[3:1],1-4[3:1],8-5[3:1],1-4[3:1],8-5[3:1],1-3[3:1],8-6[3:1],1-5[3:1],8b,
{4}18,1,17,1,18,8,28,8,1,2,3,4,5,6,7,8<1[4:3],,,,,81,18,72,72,36,63,54,54,54,63,27,8b/1b,
{2}8h[2:4],1,2,3,4h[2:4],8,7,6,
{4}5,4,3,2,1,1,1-5[4:1],1b,8,7,6,5,4,3,2,1,1,2,3,4,5,6,7,8,
1,8,2,7,3,6,4,5,4,5,3,6,2,7,1,8,1,,8b/2b,,8,,1b/7b,,8,7,6,5,1,2,3,4,54,,63,,72,,18,,8<5[3:1],,4>1[3:1],,8-4[3:1],,1b,,
1,2,3,4,5,6,7,8,8,7,6,5,4,3,2,1,18,,72,,63,,45,,5>6[4:13],,
{1},,,
{2}1b,2,3,
{4}4,4,3,3,2,2,1,1,2,3,4,5,4,,5,,6,6,7,7,8,8,1,1,8,7,6,5,
4,3,2,1,8,7,6,5,5,6,7,8,1,2,3,4,
45,4,46,4,45,5,35,5,45,63,72,18,18,27,63,54,4bqq1[4:15]/5bpp8[4:15],
&inote_4=(205)
{1}8>7[8:26],1,2,3,
4>5[8:26],3,2,1,
{4}18,2,3,4,56,7,8,1,23,4,5,6,78,1,2h[8:1],2,
{8}3,3,6,6,4,4,5,5,3,3,6,6,2,2,7,7,
8,7,6,5,4,3,2,1,8,8,8,8,8w4[8:1],,8b,,
6,,5,5,,4,4<7[2:1],,,,,,3,2,1,8,7,,2,2,,3,3>8[2:1],,,,,,4,5,6V84[1:1],5,6,,1,1,,2,2,,3h[4:1],,,,4,3,2V48[1:1],1,2,,8,8,,7,7,,6h[4:1],,,,1b,,,,
12,3,4,57,6,5,4>1[4:1]/2,,1<6[4:1],,6p1[3:1],,1,2,3,4,4-1[4:1],,8,7<4[4:1],,3,2p4[16:3],,,,,45,4-7[8:1]/5-2[8:1],,45,,45,,63,2h[8:1]/7h[8:1],,,1b/8b,,,,,
,
{6}78,16,25,{8}3/4-8[2:1],,3,3,,3,,,6/5-1[2:1],,6,6,,6,,,1/8<4[2:1],,1,1,,1,,,
2h[2:1]/6h[2:1],,,,,,,,
{2}7<4[2:1],4-8[2:1],8>3[2:1],3-7[2:1],3>8[2:1],8-4[2:1],4<7[2:1],7-3[2:1],
8<4[2:1],4>8[2:1],8v3[2:1],3>6[2:1],
4>8[2:1],8<4[2:1],4pp6[2:1],6>1[2:1],
{4}7-4[4:1],7,1-5[4:1],1,8-4[4:1],8,2-5[4:1],2,
3-7[4:1],3,4-8[4:1],4,5-1[4:1],5,6v3[4:1],6<5[4:3],,,,1b,
{8}
2,6,2,6,3,7,3,7,4,8,4,8,5,1,5-3[4:1],,5-7[4:1],,5-1[4:1],,5,,8b,,
{2}1h[2:3],3,5,7,8h[2:3],6,4,2,
{8},4,5,3,6,2,7,1,
{16}8,,8,1,8,,8<2[4:1],,8h[2:1],,
{8},,,1b,,2,2,,3<8[2:1],3h[2:1],,,,,,
1,8,7,6,25,,12,83,,78,1>6[8:3]/6>1[8:3],,,,,,
78,16,25,43,5,5,5,6,6,6,7,7,7,8,8,8,15,2,3,4/8-4[2:1],,
3,2,1,8,7,6,5,4,3,2,1,78,16,,1,1h[4:1],,7,35,,8,8h[4:1],,2,64,,5v8[4:1],4,3,2,,1,,,,
1,8,2,7,3,6,4,5-8[4:1],,,1b,,
{4}
2-5[4:1],2,7-4[4:1],7,1-5[4:1],1,8-4[4:1],8,3^1[4:1],1^7[4:1],7<4[4:1],4>1[4:1],1<5[4:1],5>1[4:1],
{8}1,8b,,,
3h[4:1],,8,46,,7,7h[4:1],,1,35,,4v1[4:1],5,6,7,,8,,,,
8,1,7,2,6,3,5,4-1[4:1],,,8b,,
{4}6-1[4:1],6,3-8[4:1],3,{8}5,5,5,5,5w1[4:1],,5,,,,,,
{1}8,6,5,
{8}4b,,,,
3,,,4,{6},5,6,{4}7,68,2,13,6,57,3,24,56,74,38,21,
{8}
7,,,8,{6},1,2,{4}3,24,6,75,2,13,7,68,12,34,56,78,
{2}1>4[2:1],8<5[2:1],1-4[2:1],8-5[2:1],1-5[2:1],8-4[2:1],1q8[2:1],8>3[4:1],
{4}5,6,7,8,4,3,2,1,
{8}5,6,7,8,4,3,2,1,
{16}8,1,8,1,8,1,8,1,8,1,8,1,8,1,8,1,8s4[4:15],
&inote_5=(205)
{1},,,,
{2},1bs5[4:1]/5bs1[4:1],,5b-8[4:1]/8b>5[4:1],,8b-5[4:1]/2b-5[4:1],,4b-8[11:1]/5b-1[11:1],
{4}2,15,1,17,1,13,1,14,1,12,1,16,1,1z5[4:1]/8,1h[4:1],,
{8}15,15,2,3,47,47,8,1,26,26,5,4,37,3-1[16:1]/7-5[16:1],3h[8:1]/7h[8:1],,8,4,1,5,2,6,3,5,
{16}3,2,1,8,7,8,1,2,{32}53,6,7,8,1,2,3,4,
{4}5b/1b,
{64}6,4,,,,,,,{8},4,5,,3,2<7[2:1]/5h[4:3],,,,,,,5,6,7,48,,{64}3,4,,,,,,,{8}25,,{64}1,8,,,,,,,{8}2/7p5[4:3],,,,,,
4,3,2v7[4:3],6,2,,6,5,,4,5h[2:1],,7h[4:1],,,,5,6,7pp2[4:3],3,7,,3,4,,5,4h[2:1],,2h[4:1],,,,2b/7b,,,,
2^4[8:1],1,2,8<5[8:1],5pp1[2:1],8,4-2[4:1],,,,,,1,2,8<5[8:1],3,8,,78,16,,45,3-7[6:1]/6-2[6:1],,,,,18,1-6[8:1]/8-3[8:1],,18,
,45,,3v1[8:1]/6v8[8:1],3h[8:1]/6h[8:1],,,
{32}1b/8b,72,36,4pp6[8:1]/5qq3[8:1],,,,,
{8},,,,
{12}4,,35,,62,,
{8}1/7qq4[2:1],,1,1>4[8:1],,1,,,8/2pp5[2:1],,8,8<5[8:1],,8,,,4qq8[2:1]/5,,5,5v2[8:1],,5,,,2h[2:1]/8h[2:1],,,,{32}37,46,5,,
{8},,,3h[8:9],,4,5,,1,,8,,7h[4:3],,,5,3,,1,,8,7,1,6,2,7,3,8h[8:5],,,1h[8:3],,,8,,5h[8:9],,6,4,,3,,8,,2h[8:5],,,5,{16}5,6,{8}7,8h[8:12],1,,2,3,,5,,6,1h[8:3],,,,1b/8b,,,,
{4}1-3[8:1]/8-4[8:1],18,1-5[8:1]/8-6[8:1],18,{8}1-3[8:1],8-4[8:1],1,8,1-5[8:1],8-6[8:1],1,8,1-3[8:1],8-6[8:1],1-5[8:1],8-4[8:1],1>4[8:1],8^6[8:1],1,8,{4}3<6[8:1],37,1-5[8:1]/8-4[8:1],1>8[2:1]/8<1[2:1],,,,2b/7b,
{16}7,6,5,4,2,3,4,5,1,8,7,6,8,1,2,3,8,7,6,5,4,3,2,1,5,6,7,8,1,2,3,4,51,4,3,2,15,8,7,6,{18}15,84,73,26,15,8b/4b,,,,
{6}2>5[8:1],1,8,7>2[8:1],6,5,4<7[16:1],{18}34,2,1,{6}8,78,,{12}7,6,{6}5-1[8:1],4,3,2-6[8:1],1,8,7-3[8:1],6,5,{12}4-8[8:1],3,2,1,,,
{8},1,8,2,7,3,6,4,5,{16}4,53,{8}26,17,8h[24:5]/6h[24:5],{24},,,7,6,5,48,37,26,{8}1bV37[4:1]/5b,,1/7V52[4:1],7,,1,{4}7w3[4:1],,,{8}35,6,37,2,7V52[4:1]/1,,7/2V84[4:1],2,,3,{4}1w5[4:1],,,{8}56,74,83,{64}2,1,,,,,,,{8}
8b/3h[8:2],7,6,7b/3h[8:2],6,5,4b/6h[8:2],3,2,3b/6h[8:2],2-5[8:1],1,2b,7>5[6:1],4,7b,,1,2,35,6,7,84,3,2,17,6,5,43,25,,16,7b/8b<5[8:1],,8b,1b>4[8:1],,{24}51,6,7,{8}8b,,1b/5b,3b/7b,,4,{16}8,7,6,5,4,3,2,1,{8}8h[4:1]/4h[4:1],,,,{16}6,5,7,5,8,,1,2,8,2,7,,36,,
{8}2h[8:2]/7h[8:2],,,1b/8b,,7<4[8:1],8,7,2,4v1[8:1],3,4,2,1<6[8:1],2,1,3,6v3[8:1],2,6,1,
{12}1,2,3,45,6,7,84,3,2,18,7,6,
{16}54,3,2,1,5,6,7,8,
{8}1b/5b,3b/7b,,,3b/4b>1[8:1],,4b,5b<8[8:1],,{24}15,2,3,{8}4b,,1b/5b,3b/7b,,8,{16}4,3,2,1,8,7,6,5,{8}4h[4:1]/8h[4:1],,,,{16}3,4,2,4,1,,8,7,1,7,2,,36,,4b-2[16:1]/5b-7[16:1],,
{8},,8b/1b,,28,28,37,37,26,26,15,15,{16}62,7,8,1,23,1,8,7,{32}64,3,2,1,8,7,6,5,{4}4b-8[8:26]/8b,,,2h[256:1],,,,6h[256:1],,,,4h[256:1],,,,8b,,
{8}3,,,2,{6},1,8,{8}7<4[8:1],8,7,1,2>5[8:1],1,2,8,7v4[8:1],1,7,2,3v8[8:1],5,3,4,1h[8:2],{16}8,7,6h[8:2],,2,3,4h[8:2],,7,6,{8}5h[8:2],,7,,,6,{6},5,4,{8}3>8[8:1],4,3,5,6<1[8:1],5,6,4,3v8[8:1],5,3,6,7v4[8:1],1,7,8,5h[8:2],{16}4,3,2h[8:2],,6,7,8h[8:2],,3,2,
{4}1h[8:2],
8,3b/8,8,7b/8,8,4b/8,8,6b/8,8,1b/8,8,8/7b,8,8q1[4:1]/5b,8h[4:1],,
{8}1/8b,1,1/7b,1,1/6b,1,1/5b,1,
8/1b,8,8/2b,8,8/3b,8,8/4b,8,
{16}2b,8,1,7,2,6,3,5,4b,6,3,7,2,6,1,5,
4b/8b,51,62,73,84,73,26,51,8b/4b,51,26,7s3[1:4]/3,84,15,26,73,,
{1},,,,,,E
