&title=Belle de Nuit
&artist=黒皇帝 feat. AKA
&first=0
&des=Dororo
&lv_5=13+
&inote_5=(157)
{16},,,,,,,,,,,,,,,,
1h[2:1]/5h[2:3],,,,,,,,,,,,,,,,
3,,3h[8:11],,,,,,,,,,,,,,
7h[2:3],,,,,,,,,,,,,,,,
5,,5h[8:3],,,,,,,,,,,,,,
8h[2:1]/4h[2:3],,,,,,,,,,,,,,,,
6,,6h[8:11],,,,,,,,,,,,,,
2h[2:3],,,,,,,,,,,,,,,,
4,,4-8[8:1],,,,,,,,,,,,,,
17,,,,2/6pp3[8:3],,,,3,,3,,,,2,,
,,1,,8-5[8:1],,1,,2h[4:1]/8,,,,,,,,
34,,,,2/5pp4[8:3],,,,1,,1,,,,2,,
,,3,,5,,4,,6^3[8:1],,6,,3,,,,
24,,,,5/1pp5[8:3],,,,6,,6,,,,7,,
,,8,,4-8[8:1],,6,,2h[4:1]/4,,,,,,,,
12,,,,8/3qq8[8:3],,,,7,,7,,,,6,,
,,5,,1,,7,,3,,26,,3b/7b,,,,
8-4[8:1],,2,,3qq6[8:3],,,,5,,5,,,,7,,
,,8,,1^6[8:1],,2,,3/1^4[8:1],,,,17,,,,
6-1[8:1],,5,,4qq5[8:3],,,,8,,8,,,,7,,
,,6,,4,,5,,3,4,3,,25,,4,,
3-5[8:1],,7,,8qq4[8:3],,,,3,,3,,,,2,,
,,1,,1-5[8:1],,5-1[8:1],,7h[4:1]/1,,,,,,,,
8^3[8:1],,7,,6pp1[8:3],,,,2,,2,,,,3,,
,,4,,8,,2,,6,3,6,,2>8[2:3]/7<1[2:3],,18,,
,,,,,,,,,,,,,,,,
,,,,,,,,,,,,8,,1,,
2h[4:1]/7h[4:1],,,,,,,,6h[4:4],,,,4,,4h[8:5],,
,,,,,,,,,,3,4,3qq4[4:7],,,,
5pp4[2:3],,,,,,,,,,,,,,,,
,,,,,,,,,,,,,,,,
24,,1,,8,,1,,57,,8,1,8,1,2/7-3[8:1],,
,,1,,1-4[8:1]*-6[8:1],,,,1b,,,,,,,,
5>1[4:1],,2,,1<5[4:1],,,,5^3[8:1],,3^8[16:3],,,8^5[16:3],,,
5>1[4:1],,4,,1<5[4:1],,,,5^3[8:1],,3^8[16:3],,,8^5[16:3],,,
5>1[4:1],,2,,1<5[4:1],,,,5^3[8:1],,3^8[16:3],,,8^5[16:3],,,
5p8[4:1],,,,8p4[4:1],,,,4^2[8:1],,2^7[16:3],,,7^4[16:3],,,
4>8[4:1],,1,,8<5[16:3],,,,4^2[8:1],,2^7[16:3],,,7^4[16:3],,,
4>1[16:3],,3,,8<4[4:1],,,,4^2[8:1],,2^7[16:3],,,7^4[16:3],,,
4>8[4:1],,1,,8<5[16:3],,,,4^2[8:1],,2^7[16:3],,,7^4[16:3],,,
4pp8[2:1]*pp1[2:1],,,,,,,,,,,,,,,,
1<5[4:1],,6,,5>2[16:3],,,,1^7[8:1],,7^5[8:1],,,4^1[16:3],,,
1<6[16:3],,8,,5>1[4:1],,,,1^7[8:1],,7^5[8:1],,,4^1[16:3],,,
1<5[4:1],,6,,5>2[16:3],,,,1^7[8:1],,7^5[8:1],,,4^1[16:3],,,
1p4[4:1],,,,4p8[4:1],,,,8^6[8:1],,6^3[16:3],,,3^8[16:3],,,
8<4[4:1],,5,,4>1[16:3],,,,8^6[8:1],,6^4[8:1],,,3^1[8:1],,,
8<5[16:3],,7,,4>8[4:1],,,,8^6[8:1],,6^4[8:1],,,3^1[8:1],,,
8<4[4:1],,5,,4>1[16:3],,,,8^5[16:3],,5,,4>6[16:6]*p6[16:6],,3,,
,,,,,,,,5w1[8:1],,,,5b,,,,
3qq6[2:5]/7qq2[2:5],,,,,,,,,,,,,,,,
,,,,,,,,,,,,,,,,
,,,,,,,,,,,,,,,,
,,,,6,,3,,7,,2,,8,,1,,
6p4[2:5]/2p8[2:5],,,,,,,,,,,,,,,,
,,,,,,,,,,,,,,,,
,,,,,,,,,,,,,,,,
,,,,45,,45,,,,3,,4,,5,,
6-3[4:5],,,,,,,,2,,,,1,,1h[8:5],,
,,,,,,,,,,,,,,,,
3-6[4:5],,,,,,,,2,,,,1,,1,,
,,,,,,8,,,,7,,,,6,,
6-3[4:5],,,,,,,,2,,,,1,,1h[8:5],,
,,,,,,,,,,,,,,,,
4-8[1:1],,,,,,,,6,,,,,,2,,
,,,,4-8[8:1],,,,4b,,,,71,,62,,
3h[4:1]/5h[4:1],,,,,,1,,78,,5,,64,,2,,
18,,6,,57,,3,4,3,,25,,8,,7,1,
7,,2,4,3,5,4,,7,5,6,4,5,,2,4,
3,5,4,6,5,7,1,,8,2,8,,37,,3,4,
2h[4:1]/5h[4:1],,,,,,6,5,6,,17,,3,4,2,4,
2,,6,5,7,5,7,,1,8,1,,27,,6,4,
6,,3,1,2,,13,,6,8,7,,86,,3,5,
1,,6,4,8,,27,,36,,18,,7,3,5,,
6h[4:1]/4h[4:1],,,,,,8,,21,,4,,35,,7,,
81,,3,,42,,6,5,6,,74,,1,,2,8,
2,,6,8,7,1,8,,3,1,2,8,1,,6,8,
7,1,8,2,1,3,5,,4,6,4,,73,,7,8,
6h[4:1]/1h[4:1],,,,,,2,1,2,,53,,6,8,6,8,
7,,3,1,3,1,2,,5,4,5,,63,,2,8,
2,,6,5,8,,74,,3,4,1,,52,,7,1,
5,,2,8,4,,63,,72,,54,,3qq7[4:5],7,1,5,
3bpp7[1:1],,,,,,,,,,,,,,,,
,,,,,,,,18,,18,,,,3,4,
5,,5h[8:3],,,,6,,6h[8:3],,,,7,,7h[8:3],,
,,8,,8-4[8:1],,,,1,,1,,,,5,4,
3,,3h[8:3],,,,2,,2h[8:3],,,,1,,1h[8:3],,
,,8,,8-4[8:1],,,,7,,7,,,,6,5,
4,,4h[8:3],,,,3,,3h[8:3],,,,2,,2h[8:3],,
,,1,,1-5[8:1],,,,8,,8,,,,4,5,
6,,5h[8:12]/6h[4:1],,,,,,6h[4:1],,,,,,7h[4:1],,
,,,,7h[4:1],,,,,,7h[4:1],,,,5,4,
3,,4h[8:12]/3h[4:1],,,,,,3h[4:1],,,,,,2h[4:1],,
,,,,2h[4:1],,,,,,2h[4:1],,,,4,5,
6,,6h[4:1],,,,,,6h[4:1],,,,,,7h[4:1],,
,,,,7h[4:1],,,,,,7h[4:1],,,,,,
3,,3h[4:1],,,,,,3h[4:1],,,,,,2h[4:1],,
,,,,2h[4:1],,,,,,2,,1,,8,,
{32}27,36,{16}4qq5[16:21]/5pp4[16:21],,,,,,,,,,,,,,,
,,,,,,,,,,,,,,34,45,
65,,,,,,,,,,,,,,,,
,,,,,,,,,,,,,,,,
E
