&title=Reanimate
&artist=Warak
&first=0
&des=Bzz
&wholebpm=212
&lv_5=14
&inote_5=(174)
{1},,
{16}4,5,3,6,4,,4h[4:1],,
7h[4:1],,,,4,3,2,1,
{8}78,67,5/6h[4:2],,4,3,2,,
{16}3,5,2,4,3-7[8:1],,2,,
{8}1,,68,17,
{16}2h[4:1]/8,,,1p5[8:1],1,,,,
{2},
{16}5,4,6,5,7h[4:1],,1,,
{8}2h[4:2],,4,6,8h[2:1],
{16}7,6,5,4,3,2,
{8}1,,,
{16}7,1,7<4[8:1],,,1,1-4[8:1],,
,8,8p4[8:1],,,2,2-6[8:1]*-6[8:1],,
,8V24[16:5],8V64[4:1],,,,
{4},,,
{16}3,5,4,6,3,,25,,
3h[8:1]/6h[8:1],,,,4,3,2,1,
{8}8,8,8p4[8:1],,8b,,,,
{16}
2,8,1,7,2,,61,,
2h[1:1]/7h[8:1],,,,
{8}6,7,8,{16},8,8q4[8:1],,,,
{2}8b,
{16}1,5,2,6,
{8}7-4[8:1]/3-8[8:1],48,37,,16,25,1h[2:1]/4,
{16}2,3,4,5,6,7,
8,,,,,,2,7,
2>5[8:1],,5,6,7,8,1,2,
3h[1:1],,,,,,,7,
7h[2:1],,,,,,,,
{2},
{4}5pp8[16:23],4,3,2,1,3b,2b,1b,
4qq1[16:23],5,6h[8:3],,8,
6b,7b,8b,
{4}
1h[8:11],2,3,4,5,
{8},8v5[4:1]*v3[4:1],8,,,,
,,{4}46,37,28,1w5[2:1],,,,
{4}2-7[4:1],7-4[4:1],4-1[4:1],1-5[4:1],5,8<4[4:1],4>8[4:1],8<5[4:1],
,4h[8:4],7-3[4:1],
{8},2-7[8:1],2,,5<1[4:1],,
{4}1>5[4:1],5-8[8:1]*-1[8:1],,2V86[4:1],6V42[4:1],2<6[4:1],7h[8:2],
{8},5V73[4:1]*V37[4:1],5,,,,
{2}2>5[8:1]/6<1[8:1],2-7[8:1]/6-3[8:1],
{4}4>1[8:1]/8<5[8:1],4-7[8:1]/8v3[8:1],48,1-5[8:1]/2-6[8:1],
{8}1b/2b,,8h[8:1],1-5[8:1],8<5[8:1],1>4[8:1],8-4[8:1],1,
8,,1V75[8:1]/2V86[8:1],5V31[8:1]/6V42[8:1],,,,,
5h[8:7],,3b,7b,1b,6b,2b,8b,
{16}1,,1,2,37,,7,6,
52,,,,1-5[8:1]/7,,28,,
{8}3h[4:1]/1b,,7,28,{16}1,1,{8}1,82,73,
6b/4b,,8V24[8:1]/7V13[8:1],4V68[8:1]/3V57[8:1],,,,,
{16}3,,,,3,3,3,3,3h[8:4],,1,,4,,7,,
{4}7b>2[8:1],7/4bv7[8:1],4/5bw1[8:1],5,
{8}7v4[8:1],,3,2,1pp3[8:1],,5,6,
{8}7h[16:1]/5h[16:1],4h[16:1]/5h[16:1],4h[16:1]/2h[16:1],1h[16:1]/8h[16:1],7h[16:1]/5h[16:1],4h[16:1]/5h[16:1],2,,
{8}1v4[8:1],,5,6,7z3[8:1],,3,2,
1-5[8:1],8-6[8:1],1-3[8:1],8-4[8:1],1-5[8:1],8<5[8:1],1,8,
3,21,8,71,{16}8,8,8,8,{8}8,1h[8:1],
5h[8:2],,4>1[8:1],6q2[8:1],4-8[8:1],6>3[8:1],4,6,
1>4[8:1],,7,8,1<6[8:1],,3,2,
{2}1-6[8:1]/5-2[8:1],7-2[8:1]/3-6[8:1],
{4}4h[4:1],6h[1:1],{8}5,7,5,7,
{4}1v6[8:1],1>1[8:3],1b/3h[4:1],,
{4}2h[4:2]/4,{8}5,6,7h[4:2],,4,3,2,1,
{4}8z4[8:1]*-5[8:1]/1,1b/8b,2-5[8:1]/6-1[8:1],2b/6b,
{4}3h[1:1],{8}4,2,4,2,
{4}8v3[8:1],8<8[8:3],8b/6h[4:1],,
{8}4-8[8:3],,,5,5v2[8:3],,,3,
3-7[8:3],,,,8w4[8:1],,,,
{4}2h[4:1],{12}8,8,8,{4}1h[4:1],{12}7,7,7,
{4}8h[4:1],7h[4:1],6h[4:1],5h[4:1],
{4}4h[4:1],{12}2,2,2,{4}3h[4:1],{12}1,1,1,
{4}2h[4:1],1h[4:1],{8}8h[8:1],6h[8:1],5h[8:1],4h[8:1],
{4}3,2,1h[4:1]/8,7,6h[4:1]/8,7,{8}5,4,3,2,{1}1v6[2:1]*v4[2:1],6V85[2:1]/3V14[2:1],
{12}65,65,65,47,,,34,34,34,25,25,25,
3h[4:3]/4,,,5b,,,6b,,,7b,,,
18,18,18,27,,,15,15,15,26,26,26,
7/3h[4:1],,,4<8[8:3],,,
{8}1,2,3,4,
{12}1h[4:1]/5,4,3,2,,,6,7,8,4,3,2,
5<8[16:3]/1h[4:1],,,5>2[16:3],,,5-1[16:3],,,
5,,,
{8}2-6[4:1],,,8,8h[2:1],,,1,
{4}1b,2b/7b,3b/6b,4b/5b,
{16}3,4,2,5,{8}3h[8:2],2-6[8:1],2,,
{16}8,1,2,3,{8}46,57,6<2[16:4]/8h[4:1],,,,,,
{16}1,8,2,7,1,,1h[4:1],,
7h[4:1],,,,{8}4,3,2h[4:1],{16},3>7[4:1],
{4}3,,,
{16}3,7,4,6,{8}3h[4:1],5,4,,
{8}73,8,2/1h[2:1],{16}2,3,4,5,6,7,8,,,,
,,7,6,{8}5h[2:1],
{16}4,3,2,1,8,7,6-2[8:1],,,,,,,8V24[16:5],
{1}8V64[4:1],
{1}1b-5[4:10]/7b-3[4:10],,,
{16}1,8,2,7,1s5[8:1],8,2,7,
1,,,,3-8[8:1]/6-1[8:1],,,,
{4}3b/6b,{8}7,6,5pp7[8:1],,4,3,
{8}2h[16:1]/4h[16:1],4h[16:1]/5h[16:1],5h[16:1]/7h[16:1],1h[16:1]/8h[16:1],4h[16:1]/2h[16:1],4h[16:1]/5h[16:1],7,,
{8}6v1[8:1],,2,3,4p8[8:1],,7,6,
{8}5-1[8:1],4-2[8:1],5-7[8:1],4-8[8:1],5-1[8:1],4>2[8:1],5,4,
7,81,2,35,{16}4,4,4,4,{8}4,5h[8:1],
2h[8:2],,8<5[8:1],2q6[8:1],8-4[8:1],2<7[8:1],8,2,
{4}6h[4:1],{8}3,2,1h[4:1]/5,,5,6,
{4}7b-3[8:1],7/2bv5[8:1],2/8bq4[8:1],8b,
3>8[8:1],{8}4,5,6>3[8:1],7,8,1<6[8:1],2,3,
4-2[8:1]/5-7[8:1],2V86[16:3]/7V13[16:3],
{2},
{4}1,
{8}3-8[8:1]/7-4[8:1],84,
{4}37,{8}1-5[8:1],8-6[8:1],1-3[8:1],8-4[8:1],1-5[8:1],8<5[8:1],1,8,
{4}1s5[8:1],1/5,{8}1-6[8:1]/8-3[8:1],27,
{4}18,{8}24,3,65,4,35,3V17[8:1]/4V28[8:1],8V64[8:1]/7V53[8:1],,,,
{4}8,{8}26,17,{16}1b/7b,2b/6b,{8}3b/5b,17,8,
{4}1-6[8:1]/7-2[8:1],1-4[8:1]/7-4[8:1],,,
{16}1b,2,1,8,1-5[8:1],,2,,1b,
,,,3,4,5,6,7b,
8,7,6,7-3[8:1],,8,,7b,
,,,1/5,8,7,6,15,
48,37,26,15,,1,,15,
26,37,48,15,,1,,
{32}1b/5,8,7,6,5,4,3,2,
1/4b,5,6,7,8>8[8:27],1,2,3,
4/8b,,,,,,,,,,,,,,,,
{1},,,
{4},1V72[7:3]/4V63[7:3],14,,
