&title=Xaleidâ—†scopiX
&artist=xi
&first=0
&des=OilSugar
&clock_count=4
&lv_4=14
&inote_3=(120)
{1},
{16}4,6,4,6,3,7,3,7,2,8,2,8,1,7,1,7,
{4}1bh[1:2],E2,E3,E4,
{4}E5,E6,E7,E8,
{4}8h[1:2],E8,E7,E6,
{4}E5,E4,E3,E2,
{4}2h[1:1],E4,E5,E6,
{4}7h[1:1],E6,E5,E4,
{4}3h[2:1],A4,6h[2:1],A5,
{4}2-6[4:1],,8-4[4:1],,
(120)
{16}3,,,2/4,,,1/8,,,1h[16:3]/8h[16:3],,,,,,,
(130)
{16}6,,,7/5,,,8/1,,,8h[16:3]/1h[16:3],,,,,,,
(140)
{16}3,,,2/4,,,1/8,,,1h[16:3]/8h[16:3],,,,,,,
(150)
{16}6,,,7/5,,,8/1,,,8h[16:3]/1h[16:3],,,,,,,
(160)
{16}2,,,4/6,,,4/6,,7,,,5/3,,,5/3,,
(170)
{16}2,,,1h[16:3]/8h[16:3],,,,,7,,,8h[16:3]/1h[16:3],,,,,
(180)
{16}2,,,1/8,,,1/8,,7,,,8/1,,,8/1,,
(190)
{16}2,,,2,,,1/3,,4,,,4,,,3/5,,
(200)
{16}6,,,6,,,5/7,,8,,,8,,,7/1,,
(210)
{16}2,,,3/5,,,4/6,,7,,,6/4,,,5/3,,
(220)
{8}2,2,4,4,5,5,7,7,
(230)
{16}1,2,3,4,5,6,7,8,
(240)
{16}1,2,3,4,5,6,7,8,
(120)
{2}1b,
(240)
{8}1/8,1/8,1/8,1/8,1/8,,C1/B7/B3,,
{8}2,,2,4,,4,5,,
{8}5,7,,7,5,,4/6,,
{8}7,,7,5,,5,4,,
{8}4,2,,2,4,,5/3,,
{8}6,,6,8,,8,1,,
{8}1,3,,3,1,,8/2,,
{4}1h[4:1]/7h[4:1],,3h[4:1]/5h[4:1],,
{4}5/6,7/8,1/2,3/4,
{8}1b/7b,,2,2,4,4,3,3,
{8}6,6,5,5,7,7,1,1,
{8}2b/8b,,7,7,5,5,6,6,
{8}3,3,4,4,2,2,8,8,
{8}1b/7b,,2,2,6,6,4,4,
{1}5b<4[2:1]b,
{3}5h[8:1]/7h[8:1],1h[8:1]/8h[8:1],2h[8:1]/4h[8:1],
{12}3,5,3,5,2,6,2,6,1,7,1,7,
(180)
{4}8b,5/6,{8}7,7,4,5,
{8}2,2,4,,1-5[8:1]/2-5[8:1],,,,
{8}7,7,4,5,2,2,4-1-5-8[4:3],,
{1},
{8}7,7,8,5,3,3,4,,
{8}2,2,1,,5/6,,3/4,,
{8}2,2,1,4,6,6,5,,
{1}7-1-5-3[2:1],
{8}7,7,4,5,4/6,,5/7-4[6:1],,
{8}3,,1-5[8:1],,6,,3/7,,
{8}2,2,5,4,5/3,,4/2-5[6:1],,
{8}7,,6-1[8:1],,2,,3/7,,
{8}2/8,2,3/7,7,4/6,4/6,4/6,,
{8}7/1,7,6/2,2,5/3,5/3,5/3,,
{8}1/2,1/2,3/8,,7/8,7/8,1/6,,
{1}4z8[2:1]/5,
{8}4b-8[8:1],,,,2h[16:1]/6h[16:1],2h[16:1]/6h[16:1],1h[16:1]/7h[16:1],1h[16:1]/7h[16:1],
{8}2/8,,{16}3,7,3,7,3,7,4,6,4,6,4,6,
{8}5-1[8:1],,,,7h[16:1]/3h[16:1],7h[16:1]/3h[16:1],8h[16:1]/2h[16:1],8h[16:1]/2h[16:1],
{8}7/1,,{16}6,2,6,2,6-2[8:1],,,,,,,,
{8}4-8[8:1],,,,6h[16:1]/2h[16:1],6h[16:1]/2h[16:1],5h[16:1]/3h[16:1],5h[16:1]/3h[16:1],
{8}6/4,,{16}3,7,3,7,2,8,2,8,1,,,,
{8}3/4,3/4,2/5,2/5,1/6,1/6,7/8,7/8,
{16}1,2,3,4,5,6,7,8,1,2,3,4,5,6,7,8,
{1}C1f/1b-6-3-8-5-2-7-4-1[4:14],,,,
{8}8h[1:2],,E7,,,E6,,,C1,,,E4,,,E3,,
{8}1h[1:2],,E3,,,E4,,,C8,,,E6,,,E7,,
{8}7h[4:1],,5,5h[4:1],,4,4h[4:1],,
{8}2,2h[4:1],,8,8,,3/7,,
{8}2h[4:1],,4,4h[4:1],,5,5h[4:1],,
{8}7,7h[4:1],,1,1,,6/2,,
{8}3,,2/4,2/4,,3/5,3/5,,
{8}4/6,4/6,,5/7,5/7,,6,,
{8}3/4,3/4,2/5,,6/5,6/5,7/4,,
{4}1/2,7/8,4v1[8:1]/5v8[8:1],C1f,
{16}2b/7b,,,1,1h[16:3],,,3,3h[16:3],,,5,5h[16:3],,,7,
{16}7h[16:3],,,5,5h[16:3],,,3,3h[16:3],,,1,1h[16:3],,,7,
{16}1/7,,,8,8h[16:3],,,6,6h[16:3],,,4,4h[16:3],,,2,
{16}2h[16:3],,,4,4h[16:3],,,6,6h[16:3],,,8,8h[16:3],,,2,
{8}2/8,,6,5,7,3,4,2,
{8}7,5,6,2,4,3,5,4,
{12}6,5,6,4/7,,,3,4,3,2/5,,,
{16}1h[8:1]/8h[8:1],,,1h[8:1]/8h[8:1],,,1/8,,2/7,,,,C1f,,,,
{16}3/5,,2,4,2,,7,5,7,,1,,2/8,,7,,
{16}6/4,,7,5,7,,2,4,2,,8,,7/1,,2,,
{16}3/8,,2,1,2,,7,8,7,,3,,2/4,,5,,
{16}6/1,,7,8,7,,2,1,2,,6,,5/7,,,,
{8}2/4,2/4,3/5,3/5,4/6,4/6,5/7,5/7,
{8}6/8,6/8,7/1,7/1,8/2,8/2,1/3,1/3,
{16}2,8,2,8,2,8,2,8,3,7,3,7,3,7,3,7,
{16}4,6,4,6,3,5,3,5,2,6,2,6,1,7,1,7,
{16}8w4[8:1],,,,B8/C1f/B4,,,,,,,,2,4,2,4,
{16}2-6[8:1],,,,,,,,5h[8:1]/7h[8:1],,,4h[8:1]/6h[8:1],,,3/5,,
{1}2b-6[8:1]/4b-8[8:1],,
(187.5)
{8}2,4,3,7,5,6,3,4,
{8}2,6,5,7,2,4,3,3,
(195)
{8}7,5,6,2,4,3,6,5,
{8}7,3,4,2,6,5,7,7,
(202.5)
{8}2,4,3,7,5,6,3,4,
{8}2,6,5,7,3,4,2,2,
(210)
{8}7,5,7,2,4,2,6-1[8:1],,
{4}2-5[8:1],7-4[8:1],3-8[8:1],6,
(217.5)
{8}2b/6b,,7-5[8:1],7,1-3[8:1],1,8-4[8:1],8,
{8}1-5[8:1],1,6,6,{16}7,4,7,4,7,,,,
(225)
{8}2-4[8:1],2,8-6[8:1],8,1-5[8:1],1,8-4[8:1],8,
{8}2,2,5,5,{16}3,4,3,4,2,,,,
(232.5)
{8}7,7h[8:1],5,5h[8:1],3,3h[8:1],1,1h[8:1],
{16}8,7,6,5,4,3,2,1,8,7,6,5,4,,,,
(240)
{8}7b/8b,7/8,,3b/4b,3/4,,1b/2b,1/2,,5b/6b,5/6,,4b/8b,,2b/6b,,
(180)
{4},{32}1b/8b,2xv3[4:5]/7x,3x/6xv7[4:5],4x/5x,,,,,{4},,
(170)
{1},
(160)
{1}5h[1:1],
(140)
{1}C1h[1:1],
(180)
{4},,,8h[128:1]b/1h[64:1]b,
{16}8/7,,,6/5,,,4/3,,,2/1,,,8-4[8:1]/7-5[8:1],,,,
{4},8-4[8:1]/1-3[8:1],,2/1,
{16}8/7,,,6/5,,,4/3,,,2/1,,,8-4[8:1]/7-5[8:1],,,,
{4},8-4[8:1]/1-3[8:1],,2/1,
{16}8/7,,,6/1,,,5/2,,3,4,3,4,3,,,,
{16}1/2,,,3/8,,,4/7,,6,5,6,5,6,,,,
{16}7,,7,5,,5,6,,2,,2,4,,4,3,,
{16}7,,7,1,,1,8,,{12}E3,E7,E4,E6,,,
{16}3b/5b,,3h[8:1]/5h[8:1],,,3h[8:1]/5h[8:1],,,4h[8:1]/6h[8:1],,,4h[8:1]/6h[8:1],,,3/7,,
{8}6,5,6,3,4,3,2/5,,
{16}2/8,,6,5,6,,4/7,,4/7,,6,5,6,,,,
{16}7/1,,3,4,3,,5/2,,3,4,3,,2/5,,,,
{8}2-5[8:1],2,7-4[8:1],7,1-5[8:1],1,8-4[8:1],8,
{8}2-6[8:1],2,7-3[8:1],7,1>4[8:1],1,8<5[8:1],8,
{8}2,2,4,4,5,5,7,7,
{16}1,8,1,8,2,7,2,7,3,6,3,6,4,5,4,5,
{16}4h[4:1],,,,5,6,7,8,1,2,3,4,5,6,7,8,
{16}1,2,3,4,5,6,7,8,1,2,3,4,5,6,7,8,
{1}1bs5>4z8[4:6],,
{8}7bh[1:2],,A4/B4,,,A2/B2,,,
{8}A8/B8,,,A6/B6,,,C7,,
{8}2h[4:7],,A3/B3,,,A5/B5,,,
{8}A7/B7,,,A1/B1,,,C8,,
{16}3b/7b,,,,4,6,4,6,4,6,4,6,4,6,4,6,
{16}3,7,3,7,3,7,3,7,2,8,2,8,2,8,2,8,
{32}A1,E2,A2,E3,A3,E4,A4,E5,A5,E6,A6,E7,A7,E8,A8,E1,
{32}A1,E2,A2,E3,A3,E4,A4,E5,A5,E6,A6,E7,A7,E8,A8,E1,
{32}A1,E2,A2,E3,A3,E4,A4,E5,A5,E6,A6,E7,A7,E8,A8,E1,
{4}B5/B4/E5f,,
{16}4/5,,3,4,3,,6,5,6,,3,4,2,,6,5,
{16}7,,2,4,2,,7,5,7,,4/8,,4/8,,,,
{16}8/1,,7,8,7,,2,1,2,,7,8,6,,2,1,
{16}3,,6,8,6,,3,1,3,,8/4,,8/4,,,,
{16}6b/5b,,,8b/7b,,,1b/8b,,,2b/1b,,,4b/3b,,,,
{16}3b/4b,,,1b/2b,,,8b/1b,,,7b/8b,,,5b/6b,,,,
{16}3b/4b,,,1b/2b,,,5b/6b,,,7b/8b,,,3b/4b>5[4:3]b,,,,
{1},
{8}7-3[8:1],,8,1-5[8:1],,8,7h[4:1],,
{8}2,,{16}1,8,1,,2-6[8:1]/7-3[8:1],,,,,,,,
{4}2-4[8:1],8-6[8:1],1-5[8:1],,
{4}7-5[8:1],1-3[8:1],8-4[8:1],,
{4}2-5[8:1],6-1[8:1],2-5[8:1],6-1[8:1],
{4}2>5[8:1],6<1[8:1],2>5[8:1],6,
{16}3,,3,4,,4,2,,6,,6,5,,5,7,,
{8}1-5[8:1],2,3-7[8:1],,,,1/6,,
{8}7,7,8,1>4[8:1]*-5[8:1]/6,,,,6x<1[8:1]*-2[8:1],
{8},,,4x,,2/6,2/6,,
{8}3-8[8:1],3,7-4[8:1],7,1,2,3/5,,
{8}1b/8b,2b/7b,3b-8[8:1]/6b-1[8:1],,,,2/7,,
{16}2,4,2,4,2,4,2,4,2,4,2,4,3,,,,
{16}7,5,7,5,7,5,7,5,7,5,7,5,6,,,,
{16}3,5,3,5,3,5,3,5,4,6,4,6,4,6,4,6,
{16}3,7,3,7,3,7,3,7,2,8,2,8,2,8,2,8,
{1}1b>2>3<4<5<6<7>8>1[32:96],,,,
{8}7h[4:1],,5,,,4,3/5,,
{8}2h[4:1],,4,,,5,6/4,,
{8}3,3h[8:1],1,1h[8:1],7,7h[8:1],5h[1:1],,
{8}6b,7b,8b,1b,2b,3b,4b,,
{8}2x/4x,3/5,4/6,7x/5x,6/4,5/3,2x/4x,1/5,
{8}6x/8x,7/1,8/2,3x/1x,2/8,1/7,{12}8bx,8bx,8bx,
{8}1x/7x,2/6,3/5,4x/6x,3/7,2/8,1x/7x,6/8,
{8}1x/5x,2/6,3x/7x,4/8,3/7,2/6,1bx/5bx,,
{16}6xb-3[10:1],,,2xb-7[10:1]b,,,5xb-8[10:1],,,1xb-4[10:1]b,,,6xb,,,,
{16}2xb-5[10:1]b,,,6xb-1[10:1],,,3xb-8[10:1]b,,,7xb-4[10:1],,,2xb,,,,
{24}3b,6,3,6,3,6,3,6,,,,,2b,7,2,7,2,7,2,7,,,,,
{24}1b,8,1,8,1,8,1>4[6:1]b,8<5[6:1],,,,,{2},
{24}1b,2,3,{16},{24}8b,7,6,{16},{24}1b,2,3,{16},{24}8b,7,6,{16},
{24}2b,3,4,{16},{24}7b,6,5,{16},{24}2b,3,4,{16},{24}7b,6,5,{16},
{24}3b,4,5,6,7,8,1,2,3,4,
{24}5,6,7,8,1x/5x,2x/6x,3x/7x,4x/8x,1xbh[4:15]/5xbh[4:15],
&inote_4=(120)
{1},
{1},
{64}1bx,2-6[4:6]/8-4[4:6],37,46,{16}5,,,{4},,,
{4},,,,
{4}3h[4:6],,,,
{4}7h[4:2],,,26,
{64}8bx,7/1,62,53,{16}4V28[16:23]*V68[16:23],,,{4},,,
{4},,,,
{4}6h[4:6],,,,
{4}2h[4:2],,,73,
(120)
{16}34,,,25,,,27,,,1h[16:3]/8h[16:3],,,,,,,
(130)
{16}65,,,74,,,72,,,8h[16:3]/1h[16:3],,,,,,,
(140)
{16}34,,,56,,,78,,,2h[16:3]/5h[16:3],,,,,,,
(150)
{16}37,,,15,,,46,,,8h[16:3]/2h[16:3],,,,,,,
(160)
{16}2,,,2,8,,28,,2,,,2,7,,27,,
(170)
{16}2,,,2,6,,26,,35,,,26,,,17,,
(180)
{16}7,,,7,1,,71,,7,,,7,2,,72,,
(190)
{16}7,,,7,3,,73,,64,,,73,,,82,,
(200)
{16}3,,,3,8,,37,,3,,,3,6,,35,,
(210)
{16}6,,,6,1,,62,,6,,,6,3,,64,,
(220)
{8}2,2,5,5,3,3,7,7,
(230)
{16}1,8,1,8,1,8,1,8,
(240)
{16}1,2,3,4,5,6,7,8,
(120)
{2}1bx,
(240)
{8}2,2,7,7,1/8,,A2/B2/A6/B6/A4/B4/A8/B8/C,,
{8}1x,,7,7h[8:2],,5,5h[8:2],,
{8}4,4h[8:2],,2,2h[8:2],,C,,
{8}8,,2,2h[8:2],,4,4h[8:2],,
{8}5,5h[8:2],,7,7h[8:2],,C,,
{8}1,,7,7h[8:2],,5,5h[8:2],,
{8}3,3h[8:2],,1,1h[8:2],,C,,
{4}3h[4:1]/4h[4:1],,6h[4:1]/7h[4:1],,
{4}37,48,15,26,
{8}1b/8b,,1,1,6,6,3,3,
{8}7,7,4,4,8,8,2,2,
{8}3bx/7bx,,6,6,4,4,8,8,
{8}2,2,4,4,6,6,8,8,
{8}1bx/7bx,,2,2,4,4,5,5,
{1}5qq2[2:1]/7pp2[2:1],
{3}3xh[8:1]/4xh[8:1],1xh[8:1]/6xh[8:1],3xh[8:1]/8xh[8:1],
{6}3,3,6,6,4,4,
(180)
{4}8b,5/6,{8}7,7,5,6,
{8}3,3,4,2,2qq5[4:1],,,,
{8}7,7,1,8,2,2,4,3,
{8}6-2^7[4:1],,,,3-7[8:1],,1w5[8:1],,
{8},,,,2,2,5,4,
{8}7,7,4,5,1,1,4,3,
{8}8,8,5,6,1,1,6,3,
{16}7-4-8-5[2:1],,,4x,,,3x,,2x,,2x,,1x,,1x,,
{8}8b,8,7,78,6,6,4,45,
{8}3,3,5,45,7,7,4,45,
{8}2,2,5,45,8,8,5,56,
{8}2,2,7-4[8:1],7,1-5[8:1],,6,,
{8}6,5,74,74,3,4,52,52,
{8}7,8,63,63,2,1,75,75,
{8}64,2,53,7,65,1,43,8,
{16}3z7[2:1],,,6-2[16:5],{4},,,
{16}4b^2[8:1]*^6[8:1],,,,,,,,7,8,7,8,7,,16,,
{8}25,,{16}7,8,7,8,7,8,7,8,7,,,,
{16}5^7[8:1]*^3[8:1],,5,,,,,,2,1,2,1,2,,83,,
{8}74,,{16}2,1,2,1,2,1,2,1,2,,,,
{16}4,,35,,26,,,,7,8,7,8,7,,16,,
{8}25,,{16}3,4,3,4,3,4,3,4,3,,,,
{16}5,,64,,73,,,,1,8,1,8,1,8,2,7,
{16}3,6,4,5,4,5,3,6,3,6,2,7,2,7,1,8,
{1}C1f/1bx-6-3-8-5-2-7-4[4:14],,,,
{1}8-5-2-7-4-1-6-3b[4:14],,,,
{8}7h[4:1],,5h[8:3],,,4h[8:3],,,
{8}2h[8:3],,,8h[4:1],,,3/7,,
{8}2h[4:1],,4h[8:3],,,5h[8:3],,,
{8}7h[8:3],,,1h[4:1],,,6/2,,
{8}3,,2h[4:1]/4h[4:1],,,3h[4:1]/5h[4:1],,,
{8}4h[4:1]/6h[4:1],,,5h[4:1]/7h[4:1],,,8,,
{8}4,4,3,,5,5,6-2[8:1],,
{8}Cf/3x,3x,4,4,5-2[8:1]*-8[8:1],,B3/B7/Cf,,
{8}3b/6b,2,1-5[8:1],1,8,7,6^1[8:1],6,5,4,3,2,1-4[8:1],1-6[8:1],,,
{8}2,3,4^1[8:1],4,5,6,7-4[8:1],7,8,1,2,3,4-1[8:1],4-7[8:1],,,
{8}2-5[8:1],6,6,7-3[8:1],2,2,1-5[8:1],6,6,
{8}7-2[8:1],4,4,3-7[8:1],6,6,8-3[8:1],2,2,
{8}4-8[8:1],7,6,5,6,7,
{16}1x/8x,,,2x/6x,,,3x/7x,,4x/5x,,,,C1f,,,,
{16}2-5[8:1],,,,8b,,,,2,,3,4,3,,6,5,6,,
{16}3,4,2,,6,5,7bx,,2,1,2bx,,7,8,7bx-4[8:1],,
{16},,8b,,,,2,,3,4,3bx,,6bx,5,6bx,,
{16}3,4,2,,6bx,5,7,,2,1,2bx,,7,8,
{8}7bx-3[8:1],7,8-5[8:1],8,1-4[8:1],1,2-6[8:1],2,
{8}5-8[8:1],5,4-1[8:1],4,6-2[8:1],6,3,,
{16}3,4,3,4,3,4,3,4,2,5,2,5,2,5,2,5,
{16}1,6,1,6,1,6,1,6,8,7,8,7,8,7,8,7,
{16}8>4[8:1]*<4[8:1],,,,A2/A6f,,,,,,,,2,4,2,4,
{16}2-6[8:1],,,,1,,,,8-4[8:1],,,7,,,1,,
{1}1bxw5[4:3],,
(187.5)
{8}3h[8:1]/5h[4:1],,,6h[8:1]/4h[4:1],,,2h[8:1]/4h[4:1],,
{8},7h[8:1]/5h[4:1],,,2h[8:1]/8h[8:1],,1h[8:1]/7h[8:1],,
(195)
{8}4h[8:1]/3h[4:1],,,4h[8:1]/5h[4:1],,,6h[8:1]/5h[4:1],,
{8},7h[8:1]/8h[4:1],,,1h[8:1]/2h[8:1],,4h[8:1]/7h[8:1],,
(202.5)
{8}6h[8:1]/8h[4:1],,,3h[8:1]/1h[4:1],,,5h[8:1]/7h[4:1],,
{8},4h[8:1]/2h[4:1],,,1h[8:1]/8h[8:1],,4h[8:1]/5h[8:1],,
(210)
{2}3h[8:3]/6h[8:3],1h[8:3]/5h[8:3],
{4}7-4[8:1],2-7[8:1],5-2[8:1],1,
(217.5)
{8}3bx/7bx,,7-4[8:1],7,2-5[8:1],2,8-4[8:1],8,
{8}1-5[8:1],1,7,7,{16}3,4,3,4,2,,,,
(225)
{8}7-4[8:1],7,2-5[8:1],2,8-4[8:1],8,
{8}1-5[8:1],1,7-3[8:1],7,2,2,{16}6,5,6,5,7,,,,
(232.5)
{16}2,1,2,1,2,,7,8,7,8,7,,3,4,3,4,3,,
{16}6,5,6,5,6,,1,8,1,8,1,8,1,8,
(240)
{8}1bx,,,1bx/8bx,2bx/7bx,,2bx/1bx,3bx/8bx,,8bx/7bx,1bx/6bx,,1b/8b,2b/7b,{32}1b/8b,27,36,45,,,,,
(180)
{4},{32}1v3^4V28^7-3[8:19]/7v5^4V68^1-5[8:19],,,,,,,,{4},,
(170)
{1},
(160)
{1},
(140)
{1}Ch[1:1],
(180)
{1},
{16}Ch[4:1]/B2h[4:1]/B3h[4:1]/B6h[4:1]/B7h[4:1],,,,,,,,1,8,1,8,1,,,,
{16}3,,3,4,3,,34,,35,,3,4,3,,,,
{16}21,,2,8,2,,27,,2,5,2,5,2,,,,
{16}38,,2,1,2,,2,,2-6[8:1],,,,1bx,,,,
{16}Ch[4:1]/B2h[4:1]/B3h[4:1]/B6h[4:1]/B7h[4:1],,,,,,,,8,1,8,1,8,,,,
{16}6,,6,5,6,,65,,64,,6,5,6,,64,,
{16}71,,7,1,7,,72,,7,4,7,4,7,,46,,
{16}78,,,36,,,12,,{12}4-8[8:1]/5-1[8:1],,,,,,
{16}2b/6b,,1h[16:3],,,8h[16:3],,,7h[16:3],,,6h[16:3],,,5h[8:1],,
{16}4h[4:1],,,,3,4,2h[4:1],,,,4h[8:1],,2,4,2,4,
{16}1h[4:1],,,,6,5,7h[4:1],,,,3,4,2h[4:1],,,,
{16}7h[4:1],,,,2,1,2,1,3h[4:1],,,,7,8,7,8,
{16}6,,2,1,2,,34,,56,,7,8,7,,56,,34,,2,1,2,,34,,67,,12,,78,,34,,
{8}1b/5b,,{12}2bx,2,2,7bx,7,7,{24}1bx,8,1,8,1,8,1,8,1,8,1,8,1,8,1,8,1,8,{16}1bxh[16:3],
{16},,6bh[16:3],,,2bh[8:1],,
{16}4bh[4:1],,,,5,6,7,8,1,2,3,4,5,6,7,8,
{16}1,2,3,4,5,6,7,8,1,2,3,4,5,6,7,8,
{1}1bxs5>4z8[4:6],,,,,,
{16}2b/6b,,,,3,5,3,5,3,5,3,5,3,5,3,5,
{16}2,6,2,6,2,6,2,6,1,7,1,7,1,7,1,7,
{16}1,8,1,8,{32}1,D2,A2,D3,A3,,,,
{16}7,8,7,8,{32}7,D7,A6,D6,A5,,,,
{16}36,,2,5,,7,4,,1,8,1,8,
{4}B2/B3/B6/B7/Cf,
{16}7h[4:1],,,,8,,6^3[8:1]/1,,,,
2,,2-5[8:1],,,,6h[4:1],,,,5,,47,,,,
18,,6,,4,,2h[4:1],,,,1,,8/3^6[8:1],,,,
7,,7-4[8:1],,,,3h[4:1],,,,4,,3,,2/6h[4:1],,,,
5,,84,,
{16}2b-6-2b[4:1],,,6b,,,7b-3-7b[4:1],,,3b,,,1b,,,,
{16}1b-5-1b[4:1],,,5b,,,8b-4-8b[4:1],,,4b,,,2b,,2b,,
{16}1bV72b[4:1],,,1b,,,4b-8b[8:1],,,1b-3-8-4b[2:1],,,1b,,,,
{8}4xh[16:1],4xh[16:1],5xh[16:1],5xh[16:1],6xh[16:1],6xh[16:1],7xh[16:1],7xh[16:1],
{16}1b/7bx,,3,5,4,,3,,6,8,7,,6,,2,,
{8}3b/7b,6-4[16:1],4,3b,,1,1,,2b/6b,3,5,2bh[8:1]/6b,,8,1,8,
{8}3b/7b,4-6[16:1],6,7b,,8,8,,
{16}2b/6b,,3,4,3,,2,,6,5,6,,7,,
{8}1,2/8,2,2/4,2,1/2,2,{12}2b/6,2,2,
{12}1b,1,1,8b,8,8,7b,7,7,6b,6,6,5b,5,5,4b,4,4,3b,3,3,2b,,,
{16}5,,5,3,5,,25,,
46,,6,5,6,,26,,1b/7b,,6,5,8-4[8:1],,3,,
1b,,,,{32}1x/5x,2x/6x,3x/7x,4x/8x,,,,,
{16}7,,7,5,6,,6,,2,,2,4,3,,3,,
{16}46,,6,,57,,5,,8-4[8:1],,,,1,,,,
{16}1,8,1,8,2,1,3,8,4,7,5,6,4,5,3,4,
{16}3,4,3,4,2,5,1,6b,1b,6b,1b,6b,1b,,,,
{8}4b/5b,6b/7b,1b/8b,2b/3b,5b/6b,7b/8b,2b/1b,3b/4b,
{16}2b,6b,2b,6b,3b,7b,3b,7b,4b,8b,3b,7b,2b,6b,1b,5b,
{1}Cf,,,,
{8}3h[4:1],,5,,,4h[4:1]/6h[4:1],,,
{8}7h[8:3],,,1,,,2/8,,
{8}3h[4:1],,6,,,5h[4:1]/3h[4:1],,,
{8}5h[4:3]/E2h[128:1]f,E3h[128:1]f,E4h[128:1]f,E5h[128:1]f,E6h[128:1]f,E7h[128:1]f,E8h[128:1]f,,
{16}2,1,2,1,2,,7,8,7,8,7,,5,6,5,,
{16}7,8,7,8,7,,2,1,2,1,2,,{12}3bx/4bx,3bx/4bx,3bx/4bx,
{16}3x,4,2,4,1,,6,5,7,5,8,,{24}15,48,37,26,,,
{16}7,8,6,8,5,,2,1,3,1,4,,{24}51,84,73,62,,,
{16}4h[32:1],6h[32:1],4h[32:1],6h[32:1],3h[32:1],5h[32:1],3h[32:1],5h[32:1],2h[32:1],1h[32:1],2h[32:1],8h[32:1],{64}2,B2,E3,B3,{32},,,,,,
{16}5h[32:1],3h[32:1],5h[32:1],3h[32:1],6h[32:1],4h[32:1],6h[32:1],4h[32:1],7h[32:1],8h[32:1],7h[32:1],1h[32:1],{64}7,B7,E7,B6,{32},,,,,,
{32}3x,4,5,6,7,8,1,2,3,4,5,6,7,8,1,2,3x/7x,6,5,4,3,2,1,8,7,6,5,4,3,2,1,8,7x/2x,3,4,5,6,7,8,1,2,3,4,5,6,7,8,1,2x/7bhx[4:1],,,,,,,,,,,,,,,,
{24}1b,8,1,8,{48},{24}2b,7,2,7,{48},{24}3b,6,3,6,{48},{24}4b,5,4,5,{48},
{24}3b,6,3,6,{48},{24}2b,7,2,7,{48},{24}1b,8,1,8,{48},{24}2b,7,2,7,{48},
{24}3b,6,3,6,3,6,3,6,3,6,3,6,
{32}3,4,5,6,7,8,1,2,3bh[4:15]/7bh[4:15],
E
