&title=Clattanoia
&artist=OxT
&first=0
&des=@纯kTeleVision_
&lv_6=14+
&inote_6=(190){1},
{16}3,4,2,4,1,,7,8,6,8,5,,4b/8b,,{8}2qq7[16:8]/6pp1[16:8],,,,,,,62,
{32}1,2,3,4,5,6,7,8,1,2,3,4,5,6,7,8,1,2,3,4,
5,6,7,8,1,2,3,4,5,6,7,8,1,2,3,4,
5,6,7,8,1<3[16:6],2,3,4,5,,,,,,,,
{32}2b,,,,2b,,,,,,,,
{32}8,7,6,5,4,3,2,1,8,7,6,5,4,3,2,1,8,7,6,5,
4,3,2,1,8,7,6,5,4,3,2,1,8,7,6,5,
4b,3b,2b,1b,8b,7b,6b,5b,4b,,,,,,,,
{16}1-5[32:3],7,3,5,
{8}1,
8-6[32:3],,1,,1-5[8:1],1,8-2[32:3],,4-8[8:1],4,7-1[32:3],,
5v3[8:1]*-7[8:1],,5,,
1-3[32:3],,8,,8-4[8:1],8,1-7[32:3],,5-1[8:1],5,2-8[32:3],,
4-7[8:1]*-8[8:1],,4,,
2-6[8:1],2,7-4[32:3],,2-6[8:1],2,8-4[32:3],,2-6[8:1],2,1-4[32:3],,5w1[32:3],,5,,
2/5,6/3,7h[8:1]/4h[8:1],,6/1,2/7,3h[8:1]/8h[8:1],,2/5,36,74,
{16}2,4,3,5,2,6,3,7,2qq7[4:6],8,3b,,,,,,
{16}8,,,,7,,,,7,,,,6,,,,6,,,,8<5[8:1],,,,,,,,
3/4-6[8:1],,,,,,,,
3/4-7[8:1],,,,,,,,
4/2V48[8:3],,,,,,,,
,,,,7pp2[4:6],,,,
2,,,,2,,,,3,,,,3,,,,4,,,,1,,,,1>4[8:1],,,,
8,,,,1/5<8[8:1],,
8,,2V48[32:7],,,,27,,,,1b,,,,
7,8,6,8,5,,
3,4,2,4,1,,
8b/4b,,
5h[8:1],,1,,6,8,7,,2h[8:1],,6,,3,5,4,,
7h[8:1],,3,,2,8,1-5[8:1],,,,1bw5[8:1],,,,1b,,,,
2/1>4[8:1],,,,8,,,,1>4[8:1]/3,,8,,8,,,,
1h[8:1]/6h[8:1],,,,2h[8:1]/5h[8:1],,,,
{24}16,8,7,6,5,4,
{16}7bV53[16:4],,,,1,,1,,2h[4:1],,,,6V48[16:5],,,,2,,,,
1-3[32:3],,1,,1-5[8:1],,,,18,,7qq8[2:1],,6,,8,,
{32}1b,2,3,,,,,,
2b,3,4,,,,,,
3b,4,5,,,,,,
2b/6b,3b/7b,4b/8b,,,,,,
{16}7,5,7,4,7,3,7,2,7,1,7<4[8:1],8,,,,,
{4}1bs5[8:9],,,,,,
{32}1,2,3,,,,,,
2,3,4,,,,,,
6pp6[32:16],,,,
{8}7,,,,,
{32}2>5[32:10],,,,3,,,,
8,7,6,,,,,,
8,7,6,,,,,,
{16}7h[32:4],,8h[32:4],,1h[32:4],,8h[32:4],,1h[32:4],,2h[32:4],,1h[32:4],,2h[32:4],,
{16}1bs5[8:9],,,,8,,,,
6-8[32:3],,,,,,,,,,
7-5[32:3],,,,,,
{32}3b,2,1,,,,,,
8b/4b,7b/3b,62,,,,,,
7b/3b,6b/2b,5b/1b,,,,,,
1b,2b,3b,4b,5b,6b,7b,8b,1b,,,,,,,,
8b>3[32:3]/7b,,,,,,,,
8v5[32:3],7,6,,,,,,
8>3[32:3],7,6,,,,,,
8v5[32:3],7,6,,,,,,
8>3[32:3],7,6,,,,,,
8v5[32:3],7,6,,,,,,
8,7,6,,,,,,
2,3,4,,7,6,5,,,,,,
1,2,3,,7,6,5,,,,,,
2p8[32:20],3,4,,6bp4[32:16],,,,
{8},,,,,,62,
{32}8,7,6,,2-8[32:3],3,4,,,,,,2/7,6,5,,,,,,
2-8[32:3],3,4,,,,,,2/8,7,6,,,,,,
1<2[16:6],2,3,4,5,6,7,8,,,,,,,,,
1,,,,8,,,,37,,,,
{32}1,2,3,,7-1[32:3],6,5,,,,,,7/2,3,4,,,,,,
7-1[32:3],6,5,,,,,,7/2,3,4,,,,,,
8,7,6,5,4,3,2,1,8,,,,,,,,
{24}83,1,2,3,4,5,6,,,3b>8[32:3],,,,,,7,6,5,4,,,,,,
{24}16,8,7,6,5,4,3,,,6b<1[32:3],,,,,,2,3,4,5,,,,,,
{24}83,1,2,3,4,5,6,,,
{16}2h[8:1],,5,,3,4,3,,7h[8:1],,4,,6,5,6,,47,,
4,8,3,7,2pp2[8:2],6q2[16:3],1,5,2b,,,,,,
{32}8b,7,6,,2-8[32:3],3,4,,,,,,2b/7,6,5,,,,,,
2b-8[32:3],3,4,,,,,,2b/8,7,6,,,,,,
1b<2[16:6],2,3,4,5,6,7,8,,,,,,,,,
1,,,,8,,,,37,,,,
{32}1b,2,3,,7-1[32:3],6,5,,,,,,7b/2,3,4,,,,,,
8b-2[32:3],7,6,,,,,,8b/2,3,4,,,,,,
8b,7,6b,5,4b,3,2b,1,8b,,,,,,,,
{24}4b,5,6,7b,8,1,2b,,,7bV53[8:1],,,,,,3b,2b,1b,8bh[32:4],,,,,,
{24}5b,4,3,2b,1,8,7b,,,2bV46[8:1],,,,,,6b,7b,8b,1bh[32:4],,,,,,
{24}4b,5b,6b,7b,8b,1b,2b,,,
{16}7h[8:1],,4,,6,5,6,,2h[8:1],,5,,3,4,3,,52,
,6,5,7,4,6,5,8,4,
1b,5h[16:1],8b,4h[16:1],7b,3h[16:1],6b,,
{16}2b-5[10:1],,3,,1b-6[10:1],,8,,1b-4[10:1],,2,,8b-5[10:1],,7,,8b-3[10:1],,1,,7b>4[16:3],,6,,7b/1,,,,
{32}8b,7,6,5,4b,3,2,1,8b,7,6,5,4b,3,2,1,8b,7,6,5,4b,3,2,1,8b,7,6,5,4b,3,2,1,8b,7,6,5,4b,3,2,1,8b,7,6,5,4b,3,2,1,8b,7,6,5,4b,3,2,1,8b,7b,6b,5b,
4b/8b-3[10:1],,,,,,,,
8b-6^5[10:1],,,,5b,,,,8b-3[10:1],,,,3b,,,,8b-6^5[10:1],,,,4b,5,,,
8b-3[10:1],,,,3b,,,,8b-6^5[10:1],,,,5b,,,,8b-3[10:1],,,,3b,,,,8b-6^5[10:1],,,,4b,5,,,8b,,,,2b,3b,4b,,,,,,
{24}8b,7,6-1[16:1],,,,1b,2,3,,,,8b,7,6v1[16:1],,,,2b,3,4,,,,8b,7,6-2[16:1],,,,2b<4[16:4],3,4,,,,3b-7[8:1],,,,,,,,,
6b,5,4,1,,,3b,,,3,,,
7b,6,5,3,,,2b,,,2,,,
8b,7,6,4,,,3b,,,3,,,
1b,8,7,5,,,4b,,,4,,,
6b,5,4,1,2,3,6b,,,6,,,
3b,4,5,1,8,7,2b,,,2,,,
8b,7,6,3b,4,5,8b,7,6,3b,4,5,
6b,7,8,1b,2,3,6bV41[8:1],7,8,1b-6[8:1]-1[16:22]*z5[8:1]z1[16:22],2,3,{16}6b,,,,,,
