&title=転生林檎
&artist=ピノキオピー
&first=0.035
&des=KとYの転生
&lv_5=13.8
&des_5=KとYの転生
&inote_5=
(145){4},{8},6h[8:7],{16},,B4,B3,,B2,,,{8}A1,
A2,A4,3h[4:3],{16}B5,B6,,B7,,A8,,,{8}A7,
A6,7V52[2:1]
||这是一个标记~
,8,7,1,3,3x,
,1,8-4[8:1]
||这是一个标记~
,3-6[8:1],8-5[8:1],3>6[4:1],8,3,
,5x,5x,7,{16}8,3,{8}8,4,5,
{16}6,4,{8}6,4,3,2,1<4[8:1],4qq2[8:1],1,
,
||这是一个标记~
,{16}6x,5x,{8}6x,{16}4,5,,3,4,3,{8}6,
6,{16}7x,7x,,,{8}8,{16}3,4,{8}3,{16}5,4,{8}5,
3,{16}2,2,,,5,4,5,3,{8}6,4,{16}3,4,
2,4,{8}3,1,7/5,{24},,{12}6/4,{24},,{8}4/6,5w1[8:1],
,A5f/D5/D6,,5
||这是一个标记~
,4,{16}7
||这是一个标记~
,3,,6,,4,
,5,,3/4,{8}4/3,2,5,{16}1,1,,6,,8,
,7,,6/5,{8}6/5,3,4,{16}2,2,,6,,5,
,7,,8/2,{8}8/2,7,5/6,4,5/6,{16}2,1,
3x,3x,1x-5[8:1],2x,8x,8x,,,,,6,6,,4x/5x,,3,
,7,,2/1,{8}2/1,6,4,{16}3,3,,5x/4x,,6,
,2,,7/8,{8}7/8
||这是一个标记~
,6,5/4,{16}3,3,,7,,2,
,8,,1,{8}1,4x/5x<7[8:1],,5x/4x>2[8:1],,4x/5x-1[8:1],
6x,7x,
||这是一个标记~
,8,{16}7,5,6,5,{8}7,1x,
,E5,{16}3,5,4,6,5,6,4,6,5,6,{8}1x>4[8:1],
{16},,1,8,,5,4,4,5-8[8:1],3,{8}6,1x,1x,
{16}2,5,4,5,4,6,6,2,{8}5x,3x-8[8:1]/4x-8[8:1],2x/5x,4x/3x,
{16},,,,3,5,4,6,4,6,5,7<4[8:1],,3,,7,
{8}8,{16}1x,1x,,,4,5,3,6,2,5,{8}4>1[8:1],6,
4/7,{16}8,8,,,{8}7-3[8:1],,7>5[4:1],8x,{16}A7,D1,
A2,D4,{8}A5/1x<6[8:1],,4x,{16},4x,,,{8}5x,5-2[8:1],
,A5,{16},6x,5x,7,5,6<8[8:1],5,7,5,6,,,,,{8}3/4,
1/2,{16}8,7,1,6,2,5,3,4,{8}C,
{16},,1v6[8:1],8,,8,{8}1,7,5/4,3,7/2-5[8:1],
8,2/7<5[8:1],6,{16}7/1,B2,E4,B5,E7,B8,E2,E3,{8}Cf,
{16},,,,8,8,2,1,2,1,2,1,3,8,4,7,
5,6,{8}6-2[8:1],,4,{16}3,3,1x,1x,4,4,7,7,
4,4,5p4[16:3],5,,,{8}E1,,1,1,{16}8,7,
6,5,{8}4/C,,2/6,{16},3/7,,,{8}8/4,4>1[8:1]/8<5[8:1],
{16},,A8/A4,D7/D3,{8}A5/A1,5x,,4/2,{16},1,{8}8,
3,7-4[8:1]*-3[8:1],,7,{16},,,,3,4,{8}2,
5,2,,1-5[8:1],{16},8,{8}1>4[8:1],{16},7,{8}1,
6,5w1[8:1],,5b,{16},,,,7,8,{8}6v4[8:1],
5,3,,3xv6[8:1]
||这是一个标记~
,,3,,7-3[8:1]/8-3[8:1],
6,8/7,,4>1[8:1],{16},5,{8}4,,6-2[8:1]/5>7[4:1],
7,6/5,,C,,,,E7/B6/A6/E6,
,,,B2/E3/E2/E6/B6/E7/B7/B5/B1/B3/Cfh[4:3]
||这是一个标记~
,,,,,,,,1b-3b[8:1],
,5-8[8:1],6,5/4>8[8:1],
,4/6,7<3[8:1],3>7[8:1],7,1,5,4/5,
3/6,4/5,3,7b/2b,,4-8[8:1],4,5-1[8:1],
5,4-2[8:1],3,5-7[8:1],5-2[8:1],5-8[8:1],{4}5-3[8:1],
{8},1w5[8:1],,1,,6-8[8:1],{4}6-4[8:1],
{8},2-8[8:1],{4}2-4[8:1],{8},7,6/5,4,
2w6[8:1],1,{4}2,{8},B3/B4/E5/B5/B6/B7/B2/E3/E7/Ch[4:1],,,,B7/E7/B6/B3/E3/B2/Ch[8:7],
{16},,,,,,,,E8,B7,B6,B5,
{8}4xq8[4:1],,,,,2-4[8:1],4-6b[8:1],8,
8,7,2-4[8:1],4-6b[8:1],8,8,7,8,
1/2,3,4/5,6,,7-5[8:1],5-3b[8:1],7,
3,2,1,8w4[8:1],,8,,B3/E4,
5s1[4:1],5q2[8:1],,,,3,4,5/6,
4/7,3,4,5/6,4/7,8-4[8:1],4-8[8:1],3,
2,1-5[8:1],1,1/7>2v4[4:1],,B3/E4/E3,,D2,
,7>2v4b[2:1],,A7/D8,{16},,,,,,,,,,,Ch[16:3],
,,{8}2-5-8-6-1-4-2[8:11],,,,,,,,,,,,,,1/8-4>1-5<8[8:13],
,,,,,,,,,,,,,,,,,6/1-4<6-2[8:5],
,,,,,,
||这是一个标记~
,
7<6>5>4>3q7[8:5],,,,,,,
||这是一个标记~
,
2>5[8:1]/8<5[8:1],,,,,,,,2x/3x,
{16},7x/6x,,,{8}5x/4x,5x<8[8:1]/4x>1[8:1],
{16},,,,,,8,7,6,1,2,3,4,5,{8}8x<5[8:1],
{16},,5,4,3,2,1,5,6,7,3,2,1,8,{8}5x-8[8:1],
,3x,{16}2,2,7,5,7,5,6,4,{8}6xh[8:1],{16}2,4,
3,7,5,6,{8}1xh[8:1],{16}7x,6,5,4,8x,7,6,5,{8}8x,
{16},,,,3,3,6,4,5-7-3[4:1],3,,,{8}5-1[8:1],4,
{16},,,,,,6,5,7,4,8-4[8:1],3,8,2,{8}8,
{16}1,1,,4x,,,{8}4h[4:1]/5h[4:1],,,3/4,{16}4x,5,
6,7,{8}8h[4:1],,4b,{16},3b/5b,,,{8}5b/7b,8b/1b,
,,,1/2-5[8:1],,2/7<4[8:1],,7/1-6[8:1],
2,1/5-8[8:1]*-2[8:1],,5,{16},,,,2,8,{8}3v1[8:1],
2,8,,7-4[8:1]
||这是一个标记~
,,7/1q5[8:1],,1/7-1[8:1],
6,7/4w8[8:1],,E4/A4/E5,{16},,,,2qq8[8:1],8,{8}8>4[8:1],
2x,C,,8-4[8:1],{16},1,{8}8<5[8:1],{16},2,{8}8,
3,4-8[8:1],,4>1[8:1],,4<7[8:1],,4/3,
2,1p8[1:1],,1/8,,,,,,,,Ch[8:5],
,,,,E7,
,,E7/B7/B2/E3,,1<7[8:1],5,1>3[8:1],
6,1,8-6[8:1],4,8-2[8:1],4,8,3-7[8:1],
3,5w1[8:1],5,5,,6/5-2[8:1],7,5/6,
7,8,1-3[8:1],1-7[8:1],1-5[8:1],1-6[8:1],{4}1>3[8:1],
{8},4w8[8:1],,4,,2-4[8:1],2-8[8:1],2,
2,5-3[8:1],5-7[8:1],5,5,B3/B4,8/7,3/4,
2/1,5/6,7/4,8/3,,6/2-5[8:1],{16},1,{8}2,
,A3/6-1[8:1],{16},5,{8}6<6[0.4138##1.3448],,,,Ch[16:9],
{16},,,,,,,,,,{8}7-5[8:1]
||这是一个标记~
,4-1[8:1],7,
4,6,7-5[8:1],4-1[8:1],7,4,8,5/7<4[8:1],
4,7>2[8:1],3,3-8[8:1],,5,4<8[8:1],1,
4/3,3,2,1b/8b<5[8:1],,4/8,3-5[8:1],6,
3,7w3[8:1],,7b,,1-3<4v6[4:1],4,4,
,7,7V51-4[4:1],4,4,3,3,2-4[8:1],
4-8[8:1],8>1-4[8:1]*<7-4[8:1],{4}8,{8},7>2v4b[4:1],,B2,
,2x-4v5-7[8:5],,,,,,,,,,1/Ch[4:7],
,1,,1,
,1-7[8:1],,1-3[8:1],,1,,1,
,1,,8/Ch[4:7],,8,,8,
,8-2[8:1],,8-6[8:1],,8,,8,
,8,,4/5,,5/4,,5/4-2[8:1],
,4/5-7[8:1],,5/4,,5/4,,5-1[8:1]/4-8[8:1],
,5/4,,,{4}B1/E3,E8/E7,
{16}B2,B3,{8}E4,6<2[4:3],6h[8:7],,,,,,,,3b,
,5x-8b[8:1],8-4[8:1],5,
3,3,5x-8b[8:1],8-4[8:1],5,3,3,2-5[8:1],
1,2/6<4[4:1],7,6,,5x-2[8:1],5x,5/7>3[8:1],
6,7/4,5,5>2[8:1],6,5/7,6,5-7[8:1]*-8[8:1],
5,5-3[8:1]*-2[8:1],,5,,7-4[8:1],8-3[8:1],7,
8,6-2[8:1],5,6/1>4[8:1],,1v4[8:1]/5-8[8:1],,5/1<6[8:1],
,1,4,5bqq5b[8:3]*pp5b[8:3],,,,,,5bxpp5b[8:7]*qq5b[8:7],
,,,,,,,,,C,
,7<3b[8:1],3>7b[8:1],7,
1,5,7<3b[8:1],3>7b[8:1],7,1,5,4,
5/6,7-4[8:1]*-2[8:1],8,7,,2>6b[8:1],6<2b[8:1],2,
8,4,5,4b/5b,{16},6b/7b,,,{8}8b/1b,3b/2b,
4/5,{16}6,4,5,3,{8}4b,,2>6[8:1],6<2[8:1],2,
8,4,2v5[8:1],8,2/1,8,8-5[8:1],8-3[8:1],
8-6[8:1],8-2[8:1],,
||这是一个标记~
,,4pp6[8:1]*qq2[8:1],,,,5pp7[8:1]*v2[8:1],
,5-7-4-8-3-1[4:3],{1},{4},,{16}A8/A1,
B1/B8,B2/B7,B6/B3,B5/B4,E5,{8}5xh[4:1]/4xh[4:1],,,,5h[4:1]/6h[4:1],
,,,3h[4:1]/2h[4:1],,,,7h[4:1]/8h[4:1],
,,,2h[4:1]/1h[4:1],,,,8h[4:1]/1h[4:1],
,,,5-8[8:1],,5-2[8:1],,5>5[2:1],
,,,4h[4:1],,,,6h[4:1]/E3,
,,,3h[4:1]/E7,,,,2h[4:1]/B5/B6/E6,
,,,7h[4:1]/E3/B2/B3,,,,4/5-2[8:1],
,5,,6/7,{16},2/3,,,{8}5/4,4/3>8[8:1],
,B6/B7/C,
E
