&title=We Gonna Party -Feline Groove Mix-
&artist=Cranky/pico/Morrigan/Lily
&first=0.018
&des=Tane
&freemsg=
&wholebpm=
&des_1=
&des_2=
&des_3=
&des_4=
&des_5=ICHINOSEKAGURA
&lv_5=14
&inote_5=(170){4},,,,
{4}4h[2:1],,6h[2:1],,
{4}8^3[4:3],,,,
{8}4^7[4:3],,,3,
,,1h[4:5],,{4},,,,
{4}6^1[4:3],,4,,
{4}2^5[4:3],,,,
{8}8h[8:3],,,5^2[4:3],
,,6h[4:4],,
{16},,,,
,,,,
,,,,
,,1,1,
{8}8,7,1,2,
{16}3,6,2,7,
1,,,,
{16}6,5,6,,
3,,4,,
6,,5,,
4,,3,,
{16}3,4,2,,
2,,1,,
8,,7,8,
7,,6,,
{16}6,,,6,
5,,4,,
3,,3,4,
3,,4,,
{16}5,4,5,,
5,,6,,
7,8,7,,
7,,6,,
{16}5,,3,4,
3,,5,,
3,,4,,
5,,6,,
{16}6,5,7,,
7,,8,,
1,,2,1,
2,,3,,
{16}4q5[4:3],,,,
,,,,
,,,,
,,,,
{16}6b,,,7b,
,,8b,,
,18,1b/8b,,
,,,,
{16}34,,2,3,
2,,1,,
18,,7,,
78,,1,,
{16}12,,2,1,
2,,3,,
34,,3,4,
3,,2,,
{16}17,,7,8,
7,,8,,
17,,1,,
78,,7,,
{16}78,,7,8,
6,,8,7,
1,,1,7,
8,,,,
{16}65,,7,6,
7,,8,,
81,,2,,
21,,8,,
{16}87,,7,8,
7,,6,,
65,,6,5,
6,,7,,
{16}82,,2,1,
2,,1,,
82,,8,,
21,,2,,
{16}2,1,3,,
1,2,8,,
2,1,3,,
28,,,,
{16}57,,6,5,
6,5,,4,
5,,4,,
6,5,6,,
{16}3,4,3,,
3,4,,4,
3,,3,,
2,,1,,
{16}8,,7,,
7,4,,6,
3,,5,2,
,4,1,,
{16}1,,2,,
2,5,,3,
6,,4,7,
7,,,,
{16}2,1,2,,
2,,2,1,
,1,,1,
2,,1,2,
{16}1,,8,,
7,,7,5,
6,4,5,,
4,,3,,
{16}5p4[4:3],,,,
,,,,
,,,,
,,,,
{16}2b,,,2b,
,,2b,,
,,1b,1,
1b,1,1b,,
{16}8-4[8:1],,,,
1-4[8:1],,,,
7-4[8:1],,,,
2-6[8:1],,,,
{16}8,,7,8,
7,,7,,
6,,45,,
3,,24,,
{16}2-5[8:1],,,,
1-5[8:1],,,,
8-5[8:1],,,,
7-3[8:1],,,,
{16}1,,2,1,
2,,2,,
3,,54,,
6,,75,,
{16}18,,,,
,,,,
1-4[8:1]/5-8[8:1],,,,
1p5[8:1]/5p1[8:1],,,,
{16}1V35[8:1]/5V71[8:1],,,,
,,,,
,,,,
1,2,3,4,
{12}56,7,8,
{16}12,,,,
1,8,7,6,
54,3,2,1,
{16}87,,,,
8,1,2,3,
45,,,4,
7,,,,
{16}8,,2,4,
3,,7,,
2,7,3,8,
2,,7,,
{16}3,4,3,,
8,,1,7,
2,6,{24}3,4,3,
{16}4,,2,,
{16}1,,8,1,
7,,7,,
1,,7,,
5,,2,,
{16}3,4,3,,
2,,6,,
2,,{24}2,3,4,
{16}5,,5,,
{16}65,,6,5,
6,,7,,
61,,2,4,
3,,4,,
{16}56,,6,4,
7,,8,,
13,,1,2,
8,,7,,
{16}25,,3,4,
2,,6,,
47,,6,5,
7,,2,,
{16}1,7,,7,
5,,5,3,
,3,1,,
1,8,2,7,
{16}1,,7,5,
6,,2,,
7,2,6,1,
7,,2,,
{16}6,5,6,,
1,,8,2,
7,3,{24}6,5,6,
{16}5,,7,,
{16}8,,1,8,
2,,2,,
8,,2,,
4,,7,,
{16}6,5,6,,
7,,3,,
7,,{24}7,6,5,
{16}4,,4,,
{16}34,,3,4,
3,,2,,
38,,7,5,
6,,5,,
{16}43,,3,5,
2,,1,,
86,,8,7,
1,,2,,
{16}74,,6,5,
7,,3,,
52,,3,4,
2,,7,,
{16}8,2,,2,
4,,4,6,
,6,8,,
8,1,7,2,
{4}8b-4[4:6],,,,
,,,,
1-5[4:6],,,,
,,,,
{2}6^1[4:3],,2^5[4:3],,
6z2[8:5],,
{16}15,,,37,
,,15,,
,,8b,8,
8b,8,8b,,
{16}1>8[8:28],,,,
8,,,,
8,,8,,
8,,,,
{8}8,,7,,
7,7,7,,
3,,2,,
2,2,2,,
2,,1,,
1,1,1,,
{16}8<1[8:28],,,,
1,,,,
1,,1,,
1,,,,
{8}1,,2,,
2,2,2,,
6,,7,,
7,7,7,,
7,,8,,
8,8,8z4[4:4],,
{1},{4},,{24},,,6,7,8,
1,,,,,,
{16}2,1,2,1,
2,,2,3,
2,,5,4,
5,,3,,
{16}2,1,2,,
8,1,8,,
17,,{24}1,2,3,
{16}47,,6,,
{16}6,3,4,3,
4,,2,4,
2,,1,4,
1,,1,8,
{16}7,6,5,4,
3,,8,3,
7,,{24}3,2,1,
{16}78,,6,,
{16}2,5,4,5,
3,,3,4,
3,,5,4,
5,,6,,
{16}7,8,6,1,
5,,5,3,
4,,3,4,
2,,1,,
{16}8,1,7,3,
6,,4,5,
2,6,8,,
8,7,1,,
{16}28,,,16,
,,24,,
57,,{24}5,4,3,
{16}2,,8,,
{16}7,8,7,8,
7,,7,6,
7,,4,5,
4,,6,,
{16}7,8,7,,
1,8,1,,
82,,{24}8,7,6,
{16}52,,3,,
{16}3,6,5,6,
5,,7,5,
7,,8,5,
8,,8,1,
{16}2,3,4,5,
6,,1,6,
2,,{24}6,7,8,
{16}21,,3,,
{16}7,4,5,4,
6,,6,5,
6,,4,5,
4,,3,,
{16}2,1,3,8,
4,,4,6,
5,,6,5,
7,,8,,
{16}1,8,2,6,
3,,5,4,
7,3,1,,
1,2,8,,
{16}71,,,83,
,,75,,
42,,{24}4,5,6,
{16}7,,1,,
{16}37,26,15,,
,,37,26,
15,,,,
4/8^3[8:5],,,,
{16},,,,
,,4^7[4:13],,
,,,,
1h[4:13],,,,
{1},,,,,,,,,,,,,,,,
