&title=Yummy Yummy High !!!!
&artist=appy
&first=1.4
&des=This destroyed my charting career.
&lv_5=13
&inote_5=(180)
{4}3qq4[2:1],5,{2}5h[4:1],{8}6qq4[8:1],6,{4}E5,{16}2hx[8:1]/7hx[8:1],,,2hx[8:1]/7hx[8:1],,,2x/7x,,{8}3pp5[8:1],3,{4}E5,{16}7hx[8:1]/2hx[8:1],,,7hx[8:1]/2hx[8:1],,,7x/2x,,{8}6<1[8:1],6,{4}2,{16}3x/4x,,,4x/5x,,,5x/6x,,{4}7hx[1:1],3bpp2[4:1],{2},
{4}1h[2:1],{8}E5,E6,A6,{16},8,7,,7,,{4}1h[2:1]/6,{8}E8,E7,E6,{16},8,7,,7,,{4}1h[2:1]`6x,{32}E8,B7,,,{8},C,{16},8,7,,7,,{8}6h[4:3]/2x,4x,2x,4x,2x,4x,2x,4x,2x/5h[2:1],4x,2x,4x,2x,4x,2x/5,4x,2x/6h[2:1],4x,2x,4x,2x,4x,2x/6,4x,2x/7h[2:1],4x,2x,4x,2x,4x,2x/7,4x,{1}2xv4b[4:1]/8<4b[4:1],
{4}2/4h[4:1],3qq4[4:1],5,5,2/4h[4:1],3qq5[4:1],6,6,3/5h[4:1],4qq6<2[2:1],6,,{8}7x,5x,7x,5x,7x,5x,7x,4,{4}5h[4:1]/6,7v1-3[4:1],4,4,4h[4:1]/5,6-8v2[4:1],3,3,{1}4qq6[2:1]/7pp5[2:1],{4}8h[4:1]/1h[4:1],{8},6,5,4,3,,
{8}6h[8:1],5h[8:1],7h[8:1],5h[8:1],6h[8:1],4h[8:1],8-2[8:1],4h[8:1],8x-4[8:1],3x,8-2[8:1],3,8x-4[8:1],3x,8x,3x,2h[8:1],5h[8:1],3h[8:1],4h[8:1],2h[8:1],5h[8:1],1-3[8:1],5h[8:1],1x-5[8:1],6x,1x-3[8:1],6x,1x-5[8:1],6x,1x,6x,7x-5[8:1],4x,7x-1[8:1],4x,7x-5[8:1],4x,7x-1[8:1],4x,7x-5[8:1],3x,7x-1[8:1],3x,7x-5[8:1],3x,7x,3x,2bpp5[8:3],,,,,,,4/6qq3[8:3],4/6,,,,,,2,{16}2,1,{8}3,3,5,5,7,7,1/8,2/7,3/6,,,E7/B7/B6/B5/E5,Cf/B2/B3/B4/E3,,1x/8x<5[8:1],,
{4}2b-6[8:1]/8b,2/7h[4:1],1V35[4:1],{8}5,6,{4}7qq8[4:1],E6/B5/B6,B2/B3/E3,{8},1/2,,{16}3,4,3,,6,5,{8}6,7/8,1/6,2qq4[8:3]/5,{4}2/5pp3[8:3],,,1x>4[8:1],1b/5b,{8}6,7,1/8,,1-7[8:1]/2-6[8:1],3,{4}1-5[8:1]/2-4[8:1],1-7[8:1]/2-6[8:1],1b/2b,{8},3/4,,{16}2,1,2,,7,8,{8}7,1/6,2/5<8[8:1],3/4,{4}2/5b>2[8:1],5bw1[8:1],5b,{8}3,3h[16:1],4h[8:1]/5h[16:1],,6h[16:1],4h[16:1]/5h[8:1],,3,4,5,5h[16:1]/6h[8:1],,4h[16:1],5h[8:1]/6h[16:1],,7,6,5,4h[16:1]/3h[8:1],,5h[16:1],4h[8:1]/3h[16:1],,2,{16}E3,B3,B4,E5,{4}6q3[8:1],5x-1[8:1]/6x,5b,,{8}7-4[8:1],8,3>8[8:1],3,5,,5,4/6,{4}3/7-4[8:1],3>8[8:1]/7,3b/7b,{8},5/6,,{16}7,8,7,,2,1,{8}2,3/8,4>1[8:1]/7,5/6,{4}4b<7[8:1]/7,4bw8[8:1],4b,6/2hx[8:1],
{8}5,5h[8:1],4h[8:5],,{16}3hx[16:1],,,3hx[16:1],,,3hx[16:1],,{8}4,4h[8:1],5h[8:5],,{16}6hx[16:1],,,6hx[16:1],,,6hx[16:1],,{8}5,4h[8:1],3h[8:5],,{16}2hx[16:1],,,2hx[16:1],,,2hx[16:1],,{8}4,5h[8:1],6h[8:5],,{16}7hx[16:1],,,7hx[16:1],,,7hx[16:1],,{8}8,1,2h[8:5],,{16}4hx[16:1],,,5hx[16:1],,,4hx[16:1],,{8}1,8,7h[8:5],,{16}5hx[16:1],,,4hx[16:1],,,5hx[16:1],,{8}8,1,2h[8:5],,{16}5hx[16:1],,,4hx[16:1],,,5hx[16:1],,{8}1,8,7h[8:5],,{16}4hx[16:1],,,5hx[16:1],,,4hx[16:1],,
{4}3s7[2:1]/5,3,3h[4:1],,3s7[2:1]/5,3,3h[4:1],,3s7[2:1]/5,3,3h[4:1],,{4}3h[16:1]/5h[8:1],4h[8:1]/6h[16:1],5h[8:1]/7h[16:1],8x,{4}6z2[2:1]/4,6,6h[4:1],,6z2[2:1]/4,6,6h[4:1],,6z2[2:1]/4,6,6h[4:1],,{4}6h[16:1]/4h[8:1],5h[8:1]/3h[16:1],4h[8:1]/2h[16:1],1x,
{8}3/5,3/5,2z6[4:1]/4,,{16}1hx[16:1],,,2hx[16:1],,,3hx[16:1],,{8}3/5,3/5,2z6[4:1]/4,,{16}1hx[16:1],,,2hx[16:1],,,3hx[16:1],,{8}3/5,3/5,2z6[4:1]/4,,{16}1hx[16:1],,,2hx[16:1],,,3hx[16:1],,{8}5/3x,1x,3x,1x,3x,1x,3bx,1x,{4}4h[8:1]/8h[8:1],4h[8:1]/8h[8:1],3h[8:1]/7h[8:1],3h[8:1]/7h[8:1],2h[8:1]/6h[8:1],2h[8:1]/6h[8:1],1h[8:1]/5h[8:1],1h[8:1]/5h[8:1],{8}7/8,5/6,3/4,1/2,7/8,5/6,3/4,1/2,{4}7b/8b,,,C,
{1}1p5v2[2:6]/6h[1:4],,,{8},,,,,,,4x,{2}3h[4:11],8,,{8}7,,,5,{1}6h[4:3],{4}4x-2[8:1]/5x-7[8:1],4x-8[8:1]/5x-1[8:1],4x/5x,3h[16:1]/6h[16:1],
{8}2b-6[8:1]/8b,2b,7b,7b,1V35[4:1],,{8}5,6,{4}7qq8b[4:1],E6/B5/B6,B2/B3/E3f,{8},1/2,,{16}3,4,3,,6,5,{8}6,7/8,1/6,2qq4[8:3]/5,{4}2/5pp3[8:3],,,1x>4[8:1],{8}1b/5b,6,7/8,1/2,3/4,,8-2[8:1]/7-3[8:1],6,{4}8-4[8:1]/7-5[8:1],8-2[8:1]/7-3[8:1],8b/7b,{8},4/5,,{16}2,1,3,,7,8,{8}6,1,2/8<5[8:1],4/7,{4}3/8b>3[8:1],8bw4b[8:1],8b,{8}6,6h[16:1],5h[8:1]/3h[16:1],,2h[16:1],1h[16:1]/8h[8:1],,7,3,5,4h[16:1]/6h[8:1],,7h[16:1],1h[8:1]/8h[16:1],,2,6,4,5h[16:1]/6h[8:1],,8h[16:1],1h[8:1]/2h[16:1],,4,{16}A3,D3,A2,D2,{4}5-1[8:1],5xpp7[8:1]*qq3[8:1]/1x,5b,,{8}2>5[8:1],3,8-4[8:1],8,1h[4:1],,8,1/7,{4}6/2>5[8:1],8-4[8:1]/2,8b/2b,{8},5/6,,{16}7,8,6,,2,1,{8}3,4,3-1[8:1]/5-1[8:1],2/6,{4}3b-7[8:1]/5b-7[8:1],3bv8[8:1]/5bv8[8:1],3b/5b,2h[16:1]/6,
{8}5/7,1/6,4h[4:1]/5,,3hx[16:1],4hx[16:1],3hx[16:1],4hx[16:1],4/2,8/3,5h[4:1]/4,,6hx[16:1],5hx[16:1],6hx[16:1],5hx[16:1],4/6,3/8,2h[4:1]/7,,3hx[16:1],2hx[16:1],3hx[16:1],2hx[16:1],5/3,6/1,7h[4:1]/2,,6hx[16:1],7hx[16:1],6hx[16:1],7hx[16:1],5/6,1/8,2/4h[4:1],,5hx[16:1],4hx[16:1],5hx[16:1],4hx[16:1],4/3,8/1,7/5h[4:1],,4hx[16:1],5hx[16:1],4hx[16:1],5hx[16:1],7/8,1/5,2h[4:3]/3p6v4[4:1],,,,,,3,4,5,,6h[4:1],,{16}A5f,B5,C,B1,A1,
