&title=FLIP FLAP FLIP FLAP
&artist=TO-MAS SOUNDSIGHT FLUORESCENT FOREST
&first=0
&des=Mare
&wholebpm=117
&cabinet=DX
&des_2=
&des_3=
&des_4=
&des_5=Mare
&des_6=
&lv_5=13+
&inote_5=(117)
{4},,,
,,,,,
{8}3,B3,,,3,B3,,,3,B2,,,3,B4,,,
{8}6,B6,,,6,B6,,,6,B7,,,6,B5,,,
{8}1>4[4:6],8,,,7,7,,,6,6,,,5,5,,,
{8}4,5,,,4,5,,,3,6,4,5,3,6,4-8[8:1],5,{16}4/C,,{8},,,,,,,
{8}7h[8:3]/1-5[8:1]-3[8:1],,1,,
{8}8-4[8:1]-6[8:1],,3,3,2-6[8:1],2,1-7[8:1],1,3h[8:7],,,,
{8}6-8[8:1]-4[8:1],,6,,
{8}3-1[8:1]-5[8:1],,3,7,8<4[4:1],8,4>8[4:1],4,8-6[8:1]-4[8:1],,A8,A6,
{32}3-8[8:1]-3[8:1],2,1h[16:11],,{8},3<6[8:1],,,,,,
{8}2-7[8:1],7-4[8:1],4-1[8:1],A7,A4,,
{8}8,7,{32}6/2h[4:1],5,4h[16:13],,
{8},,3,3,2,1,8,7q4[4:1]>1[4:1]/3q8[4:1]<5[4:1],,,,,,,,
{8}2>3[24:1]<5[12:1]/E8/B7/E7,,2,,6<7[24:1]>1[12:1]/E4/B3/E3,,6,4<7[8:1],3,2,1,1,1V75[8:1]*v4[8:1],,,,
{8}7<6[24:1]>4[12:1]/E2/B2/E3,,7,,3>2[24:1]<8[12:1]/E6/B6/E7,,3,5>2[8:1],6,7,8-5[8:1]*q6[8:1],8,8b,,
{8}1-5[8:1],5,1,,8-4[8:1],4,8,,1,1,1-4[8:1],1-6[8:1],1-5[8:1],1,1b,,
{8}8,7,{32}6/1,2,3h[16:7],,
{8},,7,{32}6,5,4h[16:7],,{8},,8,{32}1,2,3h[16:11],,
{8},E8/B7/E7,,B2/C/B1/B5/B4,,,,
{8}7/1,2,3,4,5-1[8:1],,8-4[8:1]/5,8,3-1[8:1],3,7-5[8:1],7,3,,
{8}3,3,3-8[8:1]/7-4[8:1],,3/7,,{64}A1/A5,D2/D6,A2/A6,D3/D7,A3/A7,,,,{8},,,
{8}3-8[8:1]/7-4[8:1],,3/7,,{64}A1/A5,D2/D6,A2/A6,D3/D7,A3/A7,D4/D8,,,{8},3/7,,,
{8}6,7-5[8:1],,7-3[8:1],,1-4[8:1],1,5-8[8:1],5,2-5[8:1],2,1-4[8:1],1,8-5[8:1],8,7bw3[4:1],,,,,,
{4}B7/B6/B8/B1/B2/B3/B4/B5,1q5[8:1]/5q1[8:1],1<6[8:1]/5>2[8:1],1w5[8:1]/5,{16}1b,Cf,,,
{8}2h[8:6]/8-3[8:1],,8,,{64}8-3[8:1],E8,B7,B6,E6,,,,{8},8,,
{8}8,8,8pp5[4:1],,5,4,3,,
{64}7h[8:6]/1-6[8:1],E2,B2,B3,E4,,,,{8},1,,{64}1-6[8:1],E2,B2,B3,E4,,,,{8},1,,
{8}1,1,1qq4[4:1],,4,5,6,,
{8},2-7[8:1],6-3[8:1],2V46[8:1],6-1[8:1],2,,5b,
{8},3-8[8:1],7-2[8:1],3-6[8:1],7-4[8:1],3-8[8:1],7>5[4:1],3,7b,,,
{8}1v3[8:1]/5v7[8:1],37,,,
{8}3/7,1v4[8:1]/5v8[8:1],,1<6[8:1]/5>2[8:1],,1v4[8:1]/5v8[8:1],,1b/5b,,
{64}7h[8:3]/2-6[8:1],E3,B3,B4,E5,,,,{8},2,,{64}7/1v6[8:1],E2,B2,B3,E4,,,,{8},{64}1/7,E8,B8,B1,E2,,,,{8},
{8},8qq4[8:3],3,8,3-8[8:1],2,3,6,
{64}2h[8:3]/7-3[8:1],E7,B6,B5,E5,,,,{8},7,,{64}2/8v3[8:1],E8,B7,B6,E6,,,,{8},{64}8/2,E2,B1,B8,E8,,,,{8},
{8},1>4[8:1],4-1[8:1],1-6[8:1],6V82[6:1],5,5,,
{16}8<5[16:2],,8,8,8,,,,
{8}2-5[8:1],6-3[8:1],2-7[8:1],6-1[8:1],2<5[4:1],6,2,,1b,,,
{16}7,1,7-5[8:1],,{8},,1<5[8:1],2,,
{8},1,3-6[8:1],3,3/8-5[8:1],8,8/4-1[8:1],4,4/7-2[8:1],7,7/3-6[8:1],3,3/8-5[8:1],8,8/4-1[8:1],4,4/8w4[8:1],8,8b,
{8},E8/A8/D1/A1/B7/B6/E6/C/A5,,E6/A5/D5/A4/B6/B7/E8/C/A8,,,,
{8}6h[8:2],,4h[8:2],,5h[8:6],,,,,,4,6,3,7,2qq5[4:4],8,
{8}2x,,E4/B4/B3,,E8/B7/E7,,,,,,5,3,6,2,7pp4[4:4],1,
{8}7x/B5/B4/E5,,E6/B6/E7,,E2/B2/E3,,,,,,3,5,2,6,1pp5[4:4],7,
{8}1x/E8/B7/E7,,E3/B2/B3,,E8/B8/E1,,,,,,8p4[4:1],2,8,3,2,1,
{12}2h[12:3],3,4,7h[12:3],6,5,1h[12:3],3,4,8h[12:3],6,5,
{12}3h[12:3],1,8,6h[12:3],8,1,4h[12:3],2,1,5h[12:2],7,8,
{12}61,7,8,25,3,4,27,8,1,36,4,5,
{8}18,27,36,45,{16}4,5,3,6,2,7,1,8,
{64}6-2[8:1]/3-5[8:1],E7,B7,B8,E1,,,,{8},6/3,,{64}1-5[8:1]/4-2[8:1],E1,B8,B7,E7,,,,{8},1/4,,
{8}8>3[8:1],7,6pp5[4:1],,5,4,3,,
{64}3-7[8:1]/6-4[8:1],E3,B2,B1,E1,,,,{8},3/6,,{64}8-4[8:1]/5-7[8:1],E1,B1,B2,E3,,,,{8},8/5,,
{8}1<6[8:1],2,3qq4[4:1],,4,5,6,,
{8},2v4[8:1],8<5[8:1],2q8[8:1],8p4[8:1],2,,1b,
{8},2v5[8:1],8-6[8:1],2-4[8:1],8v5[8:1],2v7[8:1],8>3[8:1]-5[16:1]-7[16:1],2,8b,,,
{8}3v1[8:1]/7v5[8:1],1-4[8:1]/5-8[8:1],,,,
{8}4v1[8:1]/8v5[8:1],,4<7[8:1]/8>3[8:1],,4v1[8:1]/8v5[8:1],,4b/8b,,
{64}1-5[8:1]/6-8[8:1],E2,B2,B3,E4,,,,{8},1>4[8:1]pp7[4:1]/6,,1h,,{64}3,E3,B2,B1,E1,,,,{8},
{8},1pp5[8:3],6,1,6-1[8:1],7,6,3,
{64}8-4[8:1]/3-1[8:1],E8,B7,B6,E6,,,,{8},8<5[8:1]qq2[4:1]/3,,8h,,{64}6,E7,B7,B8,E1,,,,
{8},
{8},8qq4[8:3],3,8,3-8[8:1],2,3<6[8:1]>3[8:1],7,
{16}3,,7,8,1-6[8:1],,,,
{8}3-8[8:1],3,5-2[8:1],5,1>4[8:1]pp8[3:1],1,1,6,8b,,,
{16}7,1,7-5[8:1],,{8},,1<5[8:1],2,,
{8},1,3-6[8:1],4,3/8-5[8:1],7,8/4-1[8:1],3,4/7-2[8:1],6,7/3-6[8:1],4,3/8-5[8:1],7,8/4-1[8:1],3,4/8w4[8:1],8,8b,
{8},E8/A8/D1/A1/B7/B6/E6/C/A5,,E6/A5/D5/A4/B6/B7/E8/C/A8,,,,
