&title=東京リアルワールド
&artist=out of service
&first=0
&des=Ch4RTrepa1Ntor
&wholebpm=150
&artistid=162
&shortid=517
&genre=niconicoボーカロイド
&genreid=102
&cabinet=SD
&version=maimai PiNK PLUS
&ChartConverter=Neskol
&ChartConvertTool=MaichartConverter
&ChartConvertToolVersion=1.0.8.0
&smsg=See https://github.com/Neskol/MaichartConverter for updates
&lv_6=13
&inote_6=(150){1},
{16}3,,3,,5,4,5,4,6h[8:1],,4,5,3,,2/6,,
{16}1b,,7,7,1b,,8,,1b/8,,1,8,2,7,3,6,
{16}3>6[4:1],,3,,8,,8h[4:1],,,,4,5,3,,2/6,,
{16}2>7[4:1],,2,,8,,8h[4:1],,,,1,8,2,7,3,6,
{16}3>6[4:1],,3,,8,,8h[4:1],,,,4,5,3,,2/6,,
{16}1/7,,8,,2/7,,1,8,1,,2/7,,5,4,6,3,
{16}6<3[4:1],,6,,1,,1h[4:1],,,,5,4,6,,7/3,,
{16}7^4[32:5],,7,,1,,1,,1,8,2,7,3,6,4,5,
{16}4>6[4:1],,4,,8,,8h[8:1],,,,4,5,3,,2/6,,
{16}1/7,,8,,2z6[16:3]/6,,1,,6z2[8:1],,,8b,,,,,
{8}5,6,7-5[8:1],,3-8[8:1],,4,,
{4}7pp2[2:1]/1,2,3,4,
{8}5/6<3[4:1],,1,1,,4/5,4/5,,
{8}6-1[8:1],2,2,,5-1[8:1]/6-1[8:1],,,,
{8}4,3,2-4[8:1],,6-1[8:1],,5,,
{4}2qq7[2:1]/8,7,6,5,
{8}4/3q5[16:5],,8,8,,6,7/5,,
{8}3-1[8:1],8,8,,4-8[8:1]/3-1[8:1],,,,
{8}7h[4:1],6,5h[4:1],6,7h[4:1],6,5h[4:1],6,
{8}7,8,1,2,3/5,4,6/4,5,
{8}2h[4:1],3,4h[4:1],3,2h[4:1],3,4h[4:1],3,
{8}2>7[4:1],,7q1[16:5],,8h[4:1],,,,
{8}7h[4:1],6,4h[4:1],5,6h[4:1],5,3h[4:1],4,
{8}6,5,4,3,1/2,8,7/8,1,
{8}4,3,5-7[8:1],2-4[8:1],5-1[8:1],2-6[8:1],5,2,
{4}8bz4[4:1]*V26[4:1],,,5/3,
{8}2q5[4:1],6-1[8:1],,,,4,3,2,
{8}1/7,8,1/2-4[8:1]*-6[8:1],,2b,,3-8[8:1]/5,,
{8}7b,6,5,4,2,3,4,5,
{4}7-2[8:1]/6-3[8:1],,1h[4:1],8b,
{8}7qq5[8:1],3qq1[8:1],,,6,7,8,3,
{8}8/2,1,8/7-5[8:1]*-3[8:1],,7b,,4q5[4:1]/6,,
{8}8h[8:3]/4b,,,,7-1[8:1],,2-6[8:1],,
{8}5-3[8:1],,1-5[8:1],,,,6/4,,
{8}8p5[4:1],4-1[8:1],,,,6,7,8,
{8}1/3,2,8-6[8:1]/1-3[8:1],,1b/8b,,8p3[8:1]/2-6[8:1],,
{8}8b/2b,,1b,1,8/2,7/3,6/4,5qq7[8:3]*qq8[8:3],
{4},,,1b,
{8}2pp4[8:1],6pp8[8:1],,,3,2,1,6,
{8}1/7,8,1/2V48[4:1],,2b/5,,7V51[4:1],,
{8}4/7b,3,2<4[4:1],,6,,8,8h[4:1],
{8},4,3/5,2,1b/6b,,3b/8b,,
{8}5,4,6h[4:1],,5-1[8:1],,,6,
{8}4,5,3h[4:1],,4-8[8:1],,,3,
{8}5,4,6h[4:1],,5-1[8:1],,,6,
{8}4,5,3h[4:1],,4-8[8:1],,,3,
{8}5,4,6h[4:1],,5-1[8:1],,,6,
{8}4,5,3h[4:1],,4-8[8:1],,,3,
{8}5,4,6h[4:1],,5-1[8:1],,,6V41[2:1],
{1}4V61[8:3],
{4}3bpp6[2:1]/6b,7,8,1,
{4}7pp2[2:1]/2,3,4,5,
{4}3/6V84[4:1],5,2-7[8:1],3-6[8:1],
{4}1,4z8[4:1],,,
{4}6qq3[2:1]/3,2,1,8,
{4}2qq7[2:1]/7,6,5,4,
{4}3V17[32:7]/6,7V53[32:7],4V28[32:7],8V64[32:7],
{4}5w1[4:1],,,5<4[4:1],
{4}5b/2b-7[8:1],,,4/5,
{8}4/5-8[8:3],3,4,,4,,4,3,
{8}5/4-1[8:3],,5,,5,,5,6,
{8}4/5-8[8:3],,4,,4,,4,3,
{4}5/4qq1[8:3],5,5,5,
{8}4/5-8[8:3],,4,,3,,2,3,
{8}5/4-1[8:3],,5,,6,,7,6,
{4}4/5-8[8:3],3,2,1-5[8:1],
{4}8-4[8:1],2-6[8:1],8,2b/6b,
{8}1-5[8:1],8,7-4[8:1],8,2-6[8:1],1,8-4[8:1],1,
{8}3,2,1-5[8:1]/7-4[8:1],,1b/7b,,8-4[8:1]/2-5[8:1],,
{8}2b/8b,,6,7,8,1>8[4:1]/8,2/7,1b/8b,
{4},3-8[8:1]/6-1[8:1],3/6,7b,
{8}8-4[8:1],1,2-5[8:1],1,7-3[8:1],8,1-5[8:1],8,
{8}7,6,5-1[8:1]/6-2[8:1],,5b/6b,,3-7[8:1]/4-8[8:1],,
{8}3b/4b,,1/7h[8:1],5,8/2h[8:1],4,1/7h[8:1],5,
{8}2/8,3/4,1/7,6/5,2/8,4/5,3b/7b,,
{8}2-5[8:1]/5,1,6V84[4:1]/2,8,4-2[12:1]/6,1-5[8:1],,1,
{8}7,8,1q7[8:1]/2>6[8:1],,1b/2b,,1q8[32:5]/2>7[32:5],,
{8}2b/1b,,1,2,3,5<4[4:1]/4,6,5b/7b,
{4},6-1[8:1]/2-5[8:1],6/2,8b,
{8}7-4[8:1]/4,8,3V15[4:1]/7,1,5-7[12:1]/3,8-4[8:1],,8,
{8}1,2,3-6[8:1]/2-7[8:1],,2b/3b,,1v4[8:1]*v6[8:1],,
{8}1b,,3/7,5,4/6,1,7/5,6,
{8}3/4,2,1^3[8:1]/8q4[8:1],7,8b^6[8:1]/1bp5[8:1],,1b/8bq1[4:1],,
{16}8b/1b>8[16:5],,,,,,,,,,2,,3,,4,,
{16}5qq1[16:5],,,8,,,8h[8:1],,,,7,,6,,5,,
{16}4pp8[16:5],,,1,,,1h[8:1],,,,2,,3,,4,,
{16}5h[16:3],,,6h[16:3],,,7,,1b/8b,,2/3,,7bV53[4:1]/6bV42[4:1],,5V31[4:1]/4V28[4:1],,
{1},
{4},
E
