&title=モア!ジャンプ!モア!
&artist=ナユタン星人
&first=0.01
&des=Zohar
&lv_5=13+
&inote_5=(202){1}
{1},
{8},,,1/E4/B3,,8/E6/B6,,,,,,C,,,,,,C,,
{8}5x/E8/B7,,4x/E2/B2,,,,,,C,,{16},,4,,E8,,3,,B7,,2,,
{8}B6,1,E6,5,E2,6,B2,7,B3,8,E4,1,5,2,6,3,
{16}7x,3x,7x,3x,7x,3x,7x,3x,7x,3x,7x,3x,2x-6[8:1],,2,,
{16}7x-3[8:1],Cf,7,,1x-5[8:1],Cf,1,,8xw4[8:1],Cf,8,,,Cf,,,
{16}7bx/6bx,,,,2b/3b,,,,8b/1b,,,,8b/1b,,
{16},,5bx/4bx,,5bx-7b[8:1]/4bx-8b[8:1],,,,5b-1b[8:1]/4b-2b[8:1],Cf,,,,Cf,,,,,
{16}5x<8[8:1]/4,,,,5/4>1[8:1],,,,5<8[8:1]/4,,,,5/4>1[8:1],,,,
{16}5<8[8:1]/4,,,,5/4>1[8:1],,,,5<8[8:1]/4,,,,5b/4b,,,,
{16}1x<6[8:1]/2,,,,1/2>5[8:1],,,,1<6[8:1]/2,,,,1/2>5[8:1],,,,
{16}1<6[8:1]/2,,,,1/2>5[8:1],,,,1<6[8:1]/2,,,,1b/2b,,,,
{16}4,,3,,2,,1,,8-5b[8:1],,,,8-3b[8:1],,,,
{16}8-4b[8:1],,,,8,,,,3,,2,,1,,8,,
{16}7bx/8bx,,6bx/1bx,,,,,,1b/2b,,8b/3b,,,,,,
{16}1-5[8:1],,,,1w5[8:1],,,,1,,,,,,,,
{8}4p3[2:1]/5,,5,,6x,,6x,,
{4}6h[2:1]/3,3,2,2,
{4}7h[2:1]/1,1,2,2,
{4}8h[4:3]/1,E2,C,E6,
{4}5q6[2:1]/4,4,2x,2x,
{4}3h[2:1]/6,6,7,7,
{8}7h[2:1]/2,,2,,1,,1,7bx/8bx,
{8}4x/3x,4x/3x,,5x/2x,4x-8b[8:1]/3x-1b[8:1],,4x/3x,,
{4}1x-4[2:1]/8x,8,7,7,
{4}4x-2[2:1]/6,6,5,5,
{4}2x-7[2:1]/4,4,5,5,
{4}5h[4:3]/7x,E8,C,E4,
{4}3x>8[2:1]/4,4,5,5,
{4}6x<1[2:1]/1,1,2,2,
{8}1x-6[2:1]/2,,2x,2hx[8:3],,,,,
{8}8x/1x,,5x-7b[8:1]/4x,5x/4x,5x/4x-2b[8:1],,5x/4x,,
{4}1x>4[2:1]/8x,,C,,
{4}5x<8[2:1]/4,,C,,
{8}8x-5[8:1],,8,1,1x-4[8:1],,1,8,
{8}8x<5[2:1],,E2,,E3,,E4,,
{16}5x,4x,5x,4x,5x,4x,5x,4x,5x,4x,5x,4x,6x,3x,6x,3x,6x,3x,6x,3x,6x,3x,6x,3x,6x,3x,6x,3x,3bx-7[8:1],,,,
{4}8b-4[8:1]/3,5b-1[8:1]/8,7b-3[8:1]/5,2bw6[8:1],
{8}A2f,,,,,,{32}1x-5[8:1],2x,3x,4x,5x,6x,7x,8x,
{16}1bw5[8:1],,,,,,,,5bx-8[8:1]/4bx-1[8:1],,,,5b/4b,,,,
{8}5<8[8:1]/4,,4>1[8:1]/5,,5<8[8:1]/4,,4>1[8:1]/5,,
{8}4b/5b,,7b-5[8:1]/5b-1[8:1],,7b-3[8:1],,7b,,
{8}1x/2x,4x/3x,6x/5x,{32}7x/8x,1x,2x,3x,4x,5x,6x,7hx[8:1]/8hx[8:1],,,,,,,,,,,,,
{8}8x<5[8:1]/1x,,1>4[8:1]/8,,8<5[8:1]/1,,1>4[8:1]/8,,
{8}8<5[8:1]/1,,1>4[8:1]/8,,8<5[8:1]/1,,1/8,,
{8}4b/3b,5b/2b,1b/6b,7b/8b,C,,1b/2b,8b/3b,
{8}7b/4b,6b/5b,C,,8-5[8:1]/1-4[8:1],,A8f/A1,,
{8}5x-7[8:1]/4,,4-2[8:1]/5,,5-7[8:1]/4,,4-2[8:1]/5,,
{8}5b/4b,,5-7[8:1]/4-8[8:1],,5-1[8:1]/4-2[8:1],,5-7[8:1]/4-8[8:1],,
{8}5-1[8:1]/4-2[8:1],,5-7[8:1]/4-8[8:1],,5p1[8:1]/4>2[8:1],,5<7[8:1]/4q8[8:1],,
{8}5p1[8:1]/4>2[8:1],,5<4[4:1]/4q5[4:1],,,,,,
{8}4x>1[2:1]/5,,6,,7,,8,,
{8}A7/A8/B7/B8f,,,,A1/A2/B1/B2Ff,,,,Ch[2:1]/E7/B7/B6/E3/B3/B2f,,,,,,,,
{16}7x-3[8:1],C,7,,1x-5[8:1],C,1,,8x-4[8:1],C,8,,,C,,,
{8}5x-7[8:1]/4x-8[8:1],,5-1[8:1]/4-2[8:1],,5-7[8:1]/4-8[8:1],,5/4-2[8:1],,
{8}5-7[8:1]/4,,5/4-2[8:1],,4/Ch[4:1],,,,
{8}1x-7[8:1]/2x-6[8:1],,1-5[8:1]/2-4[8:1],,1/2,,5x/4x,6/3,
{8}7/2,,8/1,7/2,6/3,,,,
{8}2b-4[8:1]/4b-7[8:1],,2-b6[8:1],,2b,,,,
{8}8-6[8:1]/2-4[8:1],,8-5[8:1]/2-5[8:1],,,,,,
{8}6-1[8:1]/3,,3-8[8:1]/6,,3/6,,5x/4x,,
{8}6/3,5/4,,8/1,{16}1,8,1,8,1,8,1,8,
{8}C,,5-7[8:1]/4-8[8:1],,4/5,,5-1[8:1]/4-2[8:1],,
{8}4/5,,5-7[8:1]/4-8[8:1],,5-1[8:1]/4-2[8:1],,4/5,,
{8}5<7[8:1]/4q8[8:1],,4/5,,5p1[8:1]/4>2[8:1],,4/5,,
{8}5<7[8:1]/4q8[8:1],,5p1[8:1]/4>2[8:1],,4-1[8:1]/5-8[8:1],,4/5,,
{8}3-8[8:1],,3/4,,3-8[8:1],,3/4,,
{8}4/3-8[8:1],,3/4-7[8:1],,4<7[8:1]/3>8[8:1],,4/3,,
{8}6-1[8:1],,6/5,,6-1[8:1],,6/5,,
{8}6-1[8:1]/5,,6/5-2[8:1],,6<1[8:1]/5>2[8:1],,5/6,,
{8}1x/2x,8x/3x,,,6x/5x,7x/4x,,,
{8}2b-6[8:1],,2b/8b-4[8:1],,8b,
{8},,,1>7[2:3]/Cf,,,,,
{1},
{8},,,8<2[2:3]/Cf,,,,,
{1},
{8},,,3,B8,2,B7,1,
{8}B6,8,B4,7,B3,6,B2,5,
{8}B1,,,8b/1b,7b/2b,6b/3b,5b/4b,C,
{8},5b/4b,6b/3b,7b/2b,8b/1b,C,,,
{32}8x-4[8:1],7x,6x,5x,4x,3x,2x,1x,8xwb4b[8:1],,,,,,,,8b,,,,,,,,5x-8[8:1]/4x-1[8:1],,,,,,,,
{8}5x/4x,,7x/8x,5/4,1/2,5/4,8/1,5/4,
{8}7/6,5/4,2/3,8x<5[8:1]/3x>8[8:1],,
{8}8-4[8:1],,8-5[8:1]/8-3[8:1],
{32},,,,E8/E1,B7/B1,B6/B2,E6/E3,{8},,8-6-2[4:1],3x-5[8:1],4x,A3f,
{8},,,1h[8:1]/8h[8:1],,7h[8:1]/2h[8:1],,6h[8:1]/3h[8:1],
{8},5h[8:1]/4h[8:1],,4qq4[2:1]/4pp4[2:1],,,,,
{16},,,,,,6,3,8,1,5,7,4,2,8,6,
{8},,,1-5[8:1],1,7-3[8:1],7,2-6[8:1],2,
{8},,5-7[8:1]/4-8[8:1],,5-1[8:1]/4-2[8:1],,5/4,,
{8}7qq1[8:5]/2,2,3,3,4,,2,
{8},,,7b-5[8:1]/8b-2[8:1],,7b-3[8:1]/8b-4[8:1],,7b/8b,
{8},5b/2b,6b/1b,7b/8b,,1b/6b,5b/2b,4b/3b,
{8},,,7-5[8:1]/2-4[8:1],,2-8[8:1],,,
{8},3/6,3,3/8,3,3/5,3,3/7,
{8},,,8-6[8:1]/4-2[8:1],,8-4[8:1]/4-8[8:1],,,
{8},7/1,5/3,8/1,4/3,8b-6[8:1]/1b-5[8:1],,8b-4[8:1]/1b-3[8:1]/A8/A1f,
{8},A8/A1f,,5x-7[8:1],,5/4-8[8:1],,4/3,
{8},2xpp8[8:5]/7,7,6,6,5,,7,
{8},,,5<8[8:1]/4,,5/4>1[8:1],,5b/4b,
{8},7/3,7,7/1,7,7/4,7,7/2,
{8},,,1>4[8:1]/8,,8<5[8:1]/1,,8b/1b,
{8},4/7,4,4/1,4,4/6,4,4/2,
{8},,,2b-4[8:1]/4b-7[8:1],,2b-6[8:1],,2b,
{8},1,5,2,6,3,7,{16}3x,7x,
{16}3x,7x,3x,7x,3x,7x,3x,7x,3x,7x,3x,7x,3x,7x,3x,7x,
{32}3x,2x,1x,8x,7x,6x,5x,4x,3x,2x,1x,8x,7x,6x/Cf,,,,,,,,,,,,,,,,,,,
{16},,,,,,5x<8[8:1]/4,,,,5/4>1[8:1],,,,5<8[8:1]/4,,
{16},,5/4>1[8:1],,,,5<8[8:1]/4,,,,5/4>1[8:1],,,,5<8[8:1]/4,,
{16},,5b/4b,,,,1x<6[8:1]/2,,,,1/2>5[8:1],,,,1<6[8:1]/2,,
{16},,1/2>5[8:1],,,,1<6[8:1]/2,,,,1/2>5[8:1],,,,1<6[8:1]/2,,
{16},,1b/2b,,,,4,,3,,2,,1,,8-5b[8:1],,
{16},,8-3b[8:1],,,,8-4b[8:1],,,,8,,,,3,,
{16}2,,1,,8,,7bx/8bx,,6bx/1bx,,,,,,1b/2b,,
{16}8b/3b,,,,,,1b-5b[8:1],,,,1b/7b-3b[8:1],,,,7b,,
E
