&title=Interlude ~Finder~
&artist=魂音泉
&first=-0.42
&des=
&des_5=Sa1T
&lv_5=13+
&inote_5=(57.5){4},,
{8}4/1-6[16:1],{16}2,2,{4}1/4-8[16:1],{8}4/1-5[16:1],{16}2,2,{4}1/4-7[16:1],{16}4/1-6[16:1],2,3,2,{8}1/4-8[16:1],{16}4,5,4,3,2,C,
{8}C,{16}6,7,{8}5/8-3[16:1],{16}7,7,{4}8/5-1[16:1],{8}5/8-4[16:1],{16}7,7,{4}8/5-2[16:1],{16}5/8-3[16:1],7,6,7,{8}8/5-1[16:1],{16}5,4,5,6,7,C,
{8}C,{16}3,2,{8}4/1-6[16:1],{16}2,2,{8}1/4-8[16:1],5,4/1-5[16:1],{16}2,2,{8}1/4-7[16:1],5,{16}4/1-6[16:1],2,3,2,{8}1/4-8[16:1],{16}4,5,4,3,2,C,
{8}C,{16}1h/8h,7h/2h,{8}5/8-3[16:1],{16}7,7,{8}8/5-1[16:1],4,5/8-4[16:1],{16}7,7,{8}8/5-2[16:1],4,{16}5/8-3[16:1],7,6,7,{8}8/5-1[16:1],{16}5,4,5,6,7,C,{8}C,
{16}8h/1h,2h/7h,{8}4/1-6[16:1],{16}2,2,1/4-8[16:1],{32}3,4,{8}5h[16:1],4/1q5[16:1]*q5[16:1],{16}2,2,{8}1/4-7[16:1],5,{16}4/1-6[16:1],{32}2,3xh,{16}2,3xh,{8}1/4-8[16:1],{16}6-4[32:1]*-4[32:1],3,4,3,2,C,
{8}C,{16}1h/8h,7h/2h,{8}5/8-3[16:1],{16}7,7,{8}8/5-1[16:1],4h[16:1],5/8p4[16:1]*p4[16:1],{16}7<6<7[12:1]*<6<7[12:1],8,{4}8/5-2[16:1],{16}5/8-3[16:1],{32}7,6xh,{16}7,6xh,{8}8/5-1[16:1],{16}3-5[32:1]*-5[32:1],6,5,6,7,C,
{8}C,{16}8h/1h,2h/7h,{8}4/1-6[16:1],{16}2,2,{8}1/4-8[16:1],5h[16:1],4/1q5[16:1]*q5[16:1],{16}2,2,{64}1/4-7[16:1],{16},{32},{64}3h[192:11]/2h[192:11],{8},{16}4/1-6[16:1],{32}2,3xh,{16}2,3xh,{8}1/4-8[16:1],{16}6-4[32:1]*-4[32:1],3,4,3,2,C,
{48}2x/C,3x,4x,5x,6x,7x,{16}1h/8h,7h/2h,{8}5/8-3[16:1],{16}7,7,{8}8/5-1[16:1],4h[16:1],5/8p4[16:1],{16}7<6<7[12:1]*<6<7[12:1],8,{4}8/5-2[16:1],{16}5/8-3[16:1],{32}7,6xh,{16}7,6xh,{8}8/5-1[16:1],{16}3-5[32:1]*-5[32:1],6,5,6,7,C,
{48}7x/C,6x,5x,4x,3x,2x,{16}1h/8h,7h/2h,{32}4/1-6[16:1],{16},{32}3,{16}2,2,1/4-8[16:1],{32}3,4,{8}5h[16:1],4/1q5[16:1]*q5[16:1],{16}2,3,{64}1/4-7[16:1],{16},{32},{64}2h[16:1]/3h[16:1],{8},{16}4/1-6[16:1],{32}2,3xh,{16}2,3xh,{8}1/4-8b[16:1],{16}6-4[32:1]*-4[32:1],3,4,3,2,C,
{48}2x/C,3x,4x,5x,6x,7x,{16}1h/8h,7h/2h,{32}5/8-3[16:1],{16},{32}6,{16}7,7,8/5-1[16:1],{32}6,5,{8}4h[16:1],5/8p4[16:1]*p4[16:1],{16}7<6<7[12:1]*<6<7[12:1],8,{4}8/5-2[16:1],{16}5/8-3[16:1],{32}7,6xh,{16}7,6xh,{8}8/5-1b[16:1],{16}3-5[32:1]*-5[32:1],6,5,6,7,C,
{48}7x/C,6x,5x,4x,3x,2x,{16}1h/8h,7h/2h,{32}4/1-6[16:1],{16},{32}3,{16}2,2,1/4-8[16:1],{32}3,4,{8}5h[16:1],4/1q5[16:1]*q5[16:1],{16}2,3,{64}1/4-7[16:1],{16},{32},{64}2h[16:1]/3h[16:1],{8},{16}4/1-6[16:1],{32}2,3xh,{16}2,3xh,{8}1/4-8b[16:1],{16}6-4[32:1]*-4[32:1],3,4,3,2,C,
{48}7x/C,6x,5x,4x,3x,2x,{16}1h/8h,7h/2h,{8}5/8-3[16:1],{16}7,7,{4}8/5-1[16:1],{8}5/8-4[16:1],{16}7,7,{4}8/5-2[16:1],{16}5/8-3[16:1],7,6,7,{8}8/5-1[16:1],{16}5,4,5,6,7,Ch[16:1],
