&title=Surges
&artist=Orangestar
&first=-0.88
&des=MikanStar
&lv_5=13+
&des_5=MikanStar
&inote_5=
(137){4},{16},,,,,,,,,,1-5[8:1],8,
{8}2h[8:1],{16}1,2,,1,{8}1h[16:3],{16},8,{8}1,{16},,5,4,
{8}5h[8:1],{16}3,3,,6,{8}6,{16},,7,8,{8}7,{16}8-4[8:1],1,
{8}7h[8:1],{16}8,7,,8,{8}8h[4:1],,1,{16},,6-4[8:1],5,
{8}7,{16}3/6,3,,2,{8}2h[2:1],{16},,,,,,7,6,
{8}5h[8:1],{16}2,5,,1,{8}1h[16:3],{16},8,{8}8h[4:1],{16},,1-6[8:1],2,
{8}3h[8:1],{16}1,3,,2,{8}2h[2:1],{16},,,,,,6,5,
{8}4,{16}3-8[8:1],4,,4,{8}3,{16}7,7h[8:1],,8,7,8,1-6[8:1],2,
{8}3h[8:1],{16}1,3,,1,{8}1,{16},,,5/4,{8}4/5h[8:1],{16}4,5,
3b,,,3,4,2,5,3,4,4,,5,4,6,5,6,
5,7h[8:1],,,{8}8/4,7/3,{16}6/2,,,5,1,6,2,7,
3h[16:3],,,8,3,7,2,6,1,5h[8:1],,1,5,1,6,2,
7,3,6,4,{8}5/3b,6b/2,{16}1b/7,,,7,{8}8h[16:3],{16}7,6,
{8}5/4b,{16}3,4,2,3,4,5,6,6,,5,6,4,7,3,
8,2,7,3,{8}8/4b,3/7b,{16}6/2b,,,1,5,2,{8}6h[8:1],
3h[8:1],7h[8:1],{16}3,7,3,7,6,5h[16:3],,,4,5,3,6,
2,7h[8:1],,,{8}2/8b,7/1b,{16}6/8b,,,8/4,1/5,2/6,3/7,4/8,
1,5,8,4,7,3,6,2,5,5h[8:1],,1,5,2,6,3,
7,4,6,3,{8}5/2b,4/7b,{16}1b/8,,,8,{8}8/1,{16}1,8,
{8}1h[8:1],7,{16}1,6,2,7h[8:1],,3,,7,3,8,2,7,
6,5h[8:1],,4,{8}5/4b,7b/3h[8:1],{16}1b,,,8/4,{8}8h[8:1],{16}4,8,
4b,,,5,4,6,3,5,4,6,,4,5,3,6,4,
5,3h[8:1],,5,{8}6/2,1/7,{16}8/6,,,8,7,1,6,2,
5h[16:3],,,2,5,1,6,8,7,1h[8:1],,8,1,7,2,8,
1,7,2,2,{8}3/6b,7/2b,{16}4/5b,,,4,{8}4h[8:1],{16}5,4,
{8}5,{16}6,6,{8}4h[8:1],{16}5,4,6,3,7,2,6,3,7,6,
5,4,2,3,{8}4/5,6/5,{16}7/6,,,6,{8}8h[8:1],7,
6/8,{16}1,1,8,7,1,6,6,2h[8:1],,5,3,4,2,5,
1,2,3,4,{8}5/6,3/8,6/1,5b/4h[8:1],7h[4:1],2h[8:1],
{16},,3,6,2,7,{8}1>4[4:1],,1,8,7h[4:1],
,5>2[4:3],{16},,,,,8,,7,,6,,5,
,,{8}5,{16},5,,,,,{8}1,5,1,
6h[8:1],5h[8:1],4h[8:1],3h[8:1],4h[8:1],3h[8:1],4h[8:1],5h[8:1],
6h[16:3],,,6,,1,2,3,
8h[16:3],,,8,{16},,8,4,{8}8,4,
4h[16:3],,,4,,6/2,7/3,6/2,
5h[16:3]/1h[16:3],,,5h[8:3]/1h[8:3],{16},,,,,,5-2[8:1],1,
{8}7h[8:1],{16}5,7,,8-5[8:1],{8}1h[16:3],{16},8,{8}1,{16},,4,5,
{8}3h[8:1],{16}5-7[8:1],3,,3,{8}5,{16},,,,,,4-7[8:1],5,
{8}2h[8:1],{16}4,2,,1-4[8:1],{8}8h[16:3],{16},1,,,,,5,4,
{8}6h[8:1],{16}4-1[8:1],6,,6,{8}4,{16},,,,,,2,3,
{8}4h[8:1],{16}5,4,,4-8[8:1],{8}3h[16:3],{16},4,{8}3,{16},,7,6,
{8}5h[8:1],{16}4-2[8:1],5,,5,{8}4,{16},,,,,,3,4,
{8}5,{16}6-1[8:1],5,,5,{8}6,{16}2,2h[8:1],,1,2,1,8-3[8:1],7,
{8}6h[8:1],{16}8,6,,8,{8}8,{16},,,1/8,{8}8/1h[8:1],{16}8,7,
6b/1,,,4,5,3-1[16:1],6,4,5,3,,8,1,7-5[16:1],2,6,
1,7,,1,{8}1/4,2/5,{16}3/6,,,5,{8}5h[8:1],{16}4,5,
3,6h[16:1],2h[16:1],7h[16:1],1h[16:1],8-6[16:1],2,7,3,8,,4,3,2,{8}1h[8:1],
{16}8,8h[8:1],,2,8-5[16:1],1,6,3,8b,,,4,{8}4h[8:1],{16}6,4,
{4}8b<5[4:1],{8}8,{16}2,3,{4}4,{8}1,1,
{16}1h[16:3],,,2h[16:3],,,3,4,{8}5,{16}6,5,{8}6,5,
{16}5h[16:3],,,6h[16:3],,,3,4,{8}5,5/6-2[8:1],4V28[8:1],6,
{16}4,,,5h[16:3],,,8,1,{4}2,{8}3/5,4/6,
{16}3/5h[16:3],,,4h[16:3],,,8,7,{4}6,{8}3/4,4/5,
{16}3h[16:3],,,6h[16:3],,,1,2,{8}3,{16}5,5,{8}4,6,
{16}2h[16:3],,,7h[16:3],,,2,3,{4}4,{8}7/1,8/2,
8h[8:1],1h[8:1],{16}8,1,8,1,8,7,6,5,{8}4b,{16}4-7[16:1],5,
{8}3b,{16}4b,8,1,2,3,4,8/5h[16:3],8,,1,8,7,6,5,
4,5,3,6,{8}2b/7b,4b/5b,{16}8b/1b,,,1/5,2/6,3/7,4/8,1/5,
{8}2/6,{16}4/8,7,6,2,3,4-2[16:1],,5,,4,8,7,6h[16:5],4,
3,2h[8:1],,,{8}2b/6b,5b/1b,{16}4b/8b,,,7,8,1,2,3,
5b/4h[16:3],,,5,4,6-8[16:1],3,5,4,6,,4,5,3-1[16:1],6,4,
5,3,,6,{8}6/3,7/2,{16}5/4h[16:3],,,2,1,8,7,6,
{8}4b/5h[8:1],{16}4,5,2,7-5[16:1],1,8,2,7,,4,6,3,7,2,
7,6,5,4,{8}3/2,4/1,8/5h[8:1],{16}8,1,2/6,3/7,4/8,5/1,
{8}6b/2h[8:1],{16}5,1,4,8,3,7,2,2h[8:1],,5,2,6,1,7/8h[16:3],
6,5,{8}4,3/7,8/4,{16}1/5,,,6,{8}2h[8:1]/6-4[16:1],{16}7,3,
{8}6b,{16}3,3,2,4,1,5,8,6h[8:1],,7,8,1,2,6,
5,4,2,3,{8}4b,6b/2b,{16}5b/1h[16:3],,,4,5,6/2,3/7,4/8,
{4}5b/1bw5[16:1],1b,{8},,6h[8:1],3h[4:1],
,5h[8:1],2h[8:1],6h[8:1],1h[8:1],7h[8:1],8h[8:1],7h[8:1],
{16}8,1,2,3,7,6,5,4,{8}1,2,3,4h[8:1],
{16}5,4,6,3,7,2,6,3,{8}8-5[16:1]*-3[16:1],1/7,{4}8b,
{16}4h[8:3],,,5h[16:3],,,,,,,,,{8}8/1,6/3,
7h[8:3]/2h[16:3],,,2,{16},,6,3,{8}6,3,
{16}8h[8:3],,,1h[16:3],,,,,,,{8}7/1,8/2,7/1,
2h[8:3]/8h[16:3],,,8,,8,7,6,
5h[8:1],{16}4h[4:1],6h[16:3],,,,,,,,,{8}2h[8:1]/8h,8h,
4h[8:1],{16}5h[4:1],3h[16:3],,,,,,,1h,7h,{8}1h,7h,
3h[8:1],{16}8,8h[16:3],,,{8}3,,1h[8:1],7h[8:1],2h[8:1],
6h[8:1],{16}1,1h[16:3],,,{8}6,,4/5,4,4b,
E
