&title=Erosion Mark
&artist=kors k REASM Des-ROW
&first=-0.07
&lv_5=13.9
&des_5=白-ster
&inote_5=
(192){4},,5/3p8[2:1],3/6h[4:1],
{2},{4}5/4-1[4:1],4/6h[4:1],
,8-5b[8:1]*-3b[8:1],8b,6,
3,5,4/3-1[8:1],3/4-8[8:1],
4/3-7[8:1],3/5,{8}6b/4b,5,3,6,
2,8,3,6,1,8,2,7,
3,6,4,5,6b/3b,4,6,8,
3,5,2,7,4,5,3,6,
2,7,1,8,{4}6/1-3[8:1],1/8-4[8:1],
8/7-5[8:1],2/7,{8}3-6[8:1],6-3[8:1],{4}3,
{8},2/4-8[8:1],2,4/3,2,1-6[8:1],6-3[8:1],1,
,5,{16}2,5,2,5,{8}2,3/6,{4}5b/4b,
2b/7b,{16}8,1,8,1,{32}8,7,{16}6,{8},{4}5/3-8[8:1],
3/5-1[8:1],5/2-6[8:1],{32}2/8-4[8:1],7,{16}6,{8},{4}8/3-6[8:1],
3/5-8[8:1],5-2[8:1],{32}5/8-3[8:1],7,{16}6,{8},{4}8/1-5[8:1],
1/8,{16}6,3,6,3,{2}6b,
{32}1b/8b,2b/7b,3b/6b,4b/5b,{8},{4}6/3,{8}1-3[8:1],6,1-5[8:1],6,
1-3[8:1],6,1,8,7-5[8:1],3,7-1[8:1],3,
7-5[8:1],3,{4}7,{8}4-2[8:1],5,4-8[8:1],5,
4-2[8:1],5,4-8[8:1],5,4-2[8:1],5,4,5,
6,2,5-7[8:1],3,5-1[8:1],2,5-7[8:1],3,
5-1[8:1],2,5-7[8:1],3,5-1[8:1],2,5-7[8:1],3,
5,4,3,2,{4}8-6[8:1]/1-6[8:1],8-3[8:1]/1-3[8:1],
1-6[8:1]/8-6[8:1],8/1,5b/7b-4b[8:1],7b/2b,
{8}2/8,4/5,1/7,5/4,{4}5/2>4[8:1],{8}5/2-8[8:1],6,
{4}5/2-4[8:1],{8}5/2<8[8:1],6,{4}5/2,{8}6/4,1,
3/5,8,7/4,2/5,{4}8/1-4[8:1],1/6-1[8:1],
{8}6/3-5[8:1],3,{4}3/8-3[8:1],{8}8/2-5[8:1],2,{4}2/6-1[8:1],
{8}6/4,3,4/8,2,1/6,{16}3,4,{8}3,1/5,
{4}7/3-1[8:1],{8}3/5,6,5/2,8,7/4,3,
4/6,3,2/6,1,8/7,2/5,3h[8:1],5h[8:1],
4h[8:1],6h[8:1],3h[8:1],5h[8:1],{4}4h[8:1],{32}6b/3b,4/5,{16},,,{32}7b/2b,
3/6,{16}4/5,{8},8-5[8:1]/1-4[8:1],3/6,{4}1/8,{8}6,2,
6,2,6,3,7,3,7,3,
8,1,8,1,8,3,6,3,
6,3,7,2,7,2,7,3,
5,4,5,4,5,4,6,3,
7,2,8,1,8,1,8,1,
1/7,8,8/6,7,7/5,6,6/4,5,
{4}5-8[4:1]/4-1[4:1],4/5,{1},{2}1b/6b,
{4}3/5,6,7/5,4,
3,2b/8b,{2}2b/7b,
{4}4,5/3,6,7,
{8}8/1,1b/8b,{4},{2}2b/5b,
{4}3,2/5,4,5,
6,1b/7b,{2}6b/3b,
{4}5-8[4:1]/4-1[4:1],4/5,,8,
{8}2,1b/7b,{4},5h[4:1],1h[4:1],
5h[4:1],2h[4:1],5h[4:1],3h[4:1],
5h[4:1],4h[4:1],{16}5,{8},{16}6/3,{8},7/2,
8/1,8,1,2,{16}3,4,5,6,7,8,1,2,
{32}3,4,5,6,7,8,1,2,{4}3b/5b,6b/1b-4b[8:1],1b/6b-2b[8:1],
6b/3b-8b[8:1],3b/5b-1b[8:1],2b-4b[8:1],2b/6b-2[8:1],
6/3-8[8:1],{8}4/3,5,{4}6/1-4[8:1],1/6-2[8:1],
6/3-8[8:1],3/5-8b[8:1],{8}5/4,3,2/1,6/4,
1/8,6/3,{4}1/2-5[8:1],2/6-1[8:1],6/3-8[8:1],
3/7-5[8:1],7/1-3b[8:1],1/6-2[8:1],6/4-8[8:1],
4/7-2[8:1],7/3-5b[8:1],3/8-6b[8:1],8/2,
{8}3/5,{16}4,6,{8}4,2/7,{4}5b/4b,6h[4:1],
5h[4:1],4h[4:1],3-1[8:1],3/8-4[8:1],
8/2-5[8:1],2/6-1[8:1],6/4-1[8:1],4/8-6[8:1],
8/2-6[8:1],2/5-8[8:1],5/4-1[8:1],4/6-1[8:1],
6/2-5[8:1],2/7-2b[8:1],7/4-1[8:1],4/8-5[8:1],
8/2-5[8:1],2/8-4b[8:1],{2}8b,
{8}6/3,{16}7,1,8,2,7,1,{2}8b,
{8}5/3,2/1,7/4,6/2,1/8,{4},{32}7/2,3/6,{16}4/5,
{4},{32}1/8,2/7,{16}3/6,{8},{4}6h[8:1]/5h[8:1],8h[8:1]/2h[8:1],
{16}4,3,5,2,6,1,7,8,{4}7/1-3[8:1],{8}8/1-5[8:1],7,
1/7h[16:1],7h[16:1],7/4,1/2,8-4[8:1],1,1/8-6[8:1],2,
8/3h[16:1],3h[16:1],3/4,1/7,{4}2/8-6[8:1],{8}1/8-4[8:1],2,
{16}1/8,2,{8}3,1/6,3/5,4h[16:1]/3h[16:1],2h[16:1]/8h[16:1],6h[16:1]/4h[16:1],1h[16:1]/2h[16:1],
{16}6h[32:1],5h[32:1],6h[32:1],4h[32:1],7h[32:1],3h[32:1],8h[32:1],2h[32:1],{8}1h[16:1],6,3/4,1/8,
6/5,8/1,2/5,1/8,3/4,3/5,3/7,3/8,
2/1,{16}8,3,{8}8-4b[8:1],7/2,{4}8b,2b,
{8}1b,2b,3b,4b,{4}5b/6b,{8}1h[16:1]/7h[16:1],2h[16:1]/4h[16:1],
{4}6bh[2:1],{8}5b,4b,{4}3b,{8}2b/8,6/3,
1b/7,5/4,3b/1,8/4,{4}5/7h[4:1],{8}4,2/1,
8/3-8[8:1],{16}7,6,{4}3/5-8[8:1],5,{8}2/4,8,
7/5,1,2/5,1/8,3/4,{16}6b,2b,8b,4b,{8}6b,
3/5,2/1,7/5,2/4,1/7,2,1/7,3,
2/8,6/5,7/3,2/5,{16}3,4,3,4,3,5,2,6,
1,7,{8}8,7/1,2/4,6/3,1/8,5/4,2/7,
3/5,2/6,1/7,8,{32}2,3,4,5,6,7,8,1,2,3,4,5,6,7,8,1,
2,3,4,5,6,7,8,1,2,3,4,5,6,7,8,1,{2}2b/6b,
{8},,,{16}7bh[8:1],3bh[16:1],{8},,,,,,,{16}1bh[8:1],
8bh[16:1],{8},,,{16}7,1,
8,2,7,1,8b<7-1-6-2-5-3<4b[8:13],2,7,1,{2}8b,
E
