&title=RIDGE RACER STEPS -GMT remix-
&artist=Yuji Masubuchi(BNGI)「RIDGE RACER」
&first=0
&des=psilocy
&clock_count=3
&lv_6=13+
&inote_6=(240)
{1},
{12},,,,,,4,5,4,6,5,6,
{12}3,4,3,7,5,6,2,4,3,8,6,7,
{12}1,,,1h[12:2],,4,3,,,
{12}8,,,8h[12:2],,5,6,,,
{12}1,,,1h[12:2],,4,3,,,
{12}1v4[8:1]/7v4[8:1],,,1>4[8:1]/7<4[8:1],,,,,,
{12}7,,,7h[12:2],,5,6,,,
{12}2,,,2h[12:2],,4,3,,,
{12}7,,,7h[12:2],,5,6,,,
{12}2v5[8:1]/8v5[8:1],,,2>5[8:1]/8<5[8:1],,,,,,
{12}1,,,1h[12:2],,7,5,,,
{12}8,,,8h[12:2],,2,4,,,
{12}1,,,1h[12:2],,7,5,,,
{12}8v5[8:1],,,8v3[8:1],,,,,,
{12}6h[4:1],,,5,,5,4h[4:1],,,
{12}6,,7,5,,2,4,,,
{12}3,,4,5,6,7,8/1,,1/8,
{12}1/8,,,1/8,,,1,8,2,
{8}7b-3[4:1],,3>7[4:1],,7<7[8:3],,,,
{8},,,,,,2v5[4:1],,
{8}5pp6[4:1],,6>3[6:1],,,,,,
{8}2-6[4:1],,6<2[4:1],,2>2[8:3],,,,
{8},,,,,,7v4[4:1],,
{16}4qq3[4:1],,,,3<6[6:1],,,,
{16},,,,8,1,2,3,
{8}4bv1[4:1],,1V35[4:1],,5<4[8:3],,,,
{8},,,,,,8v5[4:1],,
{8}5V71[4:1],,1v8[6:1],,,,,,
{8}5v8[4:1],,8V64[4:1],,4>5[8:3],,,,
{8},,,,,,1b/8b,,
{24},,,,2h[24:13],,7h[24:13],,,,,,
{24},,,,,,3,4,5h/6h,,,,
{12}3,,,3h[12:2],,5,4,,,
{12}6,,,6h[12:2],,4,5,,,
{12}3,,,3h[12:2],,5,4-2[8:1],,,
{12}4-6[8:1],,,4-8[8:1],,,4,,,
{12}6,,,6h[12:2],,4,5,,,
{12}3,,,3h[12:2],,5,4,,,
{12}6,,,6h[12:2],,4,5<8[8:1],,,
{12}5>2[8:1],,,5-1[8:1],,,5,,,
{12}2,,,2h[12:2],,6,4,,,
{12}7,,,7h[12:2],,3,5,,,
{12}2,,,2h[12:2],,6,4-2[8:1]*>1[8:1],,,
{12}4-6[8:1]*<7[8:1],,,4-8[8:1]*-8[8:1],,,4,,,
{12}7,,,7h[12:2],,3,4,,,
{12}2,,,2h[12:2],,6,5,,,
{12}7,,3,4,,1,8-4[8:1],,,
(120)
{16}1b/8b,,1q8[4:5],1,1,1,1,,
{16},,,,,,3,,
{16}2,,1-4[8:1],,,,1b,,
{16},,5,,6,,7h[3:2],,
{16},,,,,,,,
{48}8,1,2,3,4,5,
{48}6,,,,,,,,,,,,,,,,,,
{16},,8v5[8:1]*v3[8:1],8,8,8,8V64[4:1]*V24[4:1],,
{16},,,,,,,,
{16},,3/5,,2/6,,1/7,,
{16}4/6,,3/7,,2/8,,1h[2:3],,
{16},,,,,,,,
{96},,,,,,,,,,,,,,,,6,5,,,,,,,
{96},,,,,,,,,,,,,,,,,,,,,,,,
{16},,,,,,8h[2:1],,
{16},,,,,,3h[8:1],,
{16}5h[8:1],,7h[4:1],,,,6h[4:1],,
{16},,2h[8:1],,4h[8:1],,6h[2:1],,
{16},,,,,,5h[4:1],,
{16},,4h[4:1],,,,,,
(240)
{12}3/6,,,2/7,,1,8,,,
{12}1-6[8:1]/8-3[8:1],,,1/8,,,,,3,
{12}5,,6,4,,3,3/6,,,
{12}3/5,,,2/6,,,1/7,,,
{12}4/6,,,3/7,,,2/8,,,
{12}1w5[8:1],,,1b,,,,,,
{12}8w4[8:1],,,8b,,,,,,
{12}1V35[8:1]/8V64[8:1],,,1b>7[2:1]/8b<2[2:1],,,,,,
{12},,,,,,,,,
{12}2h[4:1]/7h[4:1],,,,,,2/7,,5,
{12}4,,3/6,,,7,2,,8,
{12}1,,2/7,,,7,5,,6,
{12}4,,5,3,,4,2,,3,
{12}1h[4:1],,,2h[4:1],,,3h[4:1],,,
{12}8h[4:1],,,7h[4:1],,,6h[4:1],,,
{12}2h[4:1],,,3h[4:1],,,4h[4:1],,,
{12}7h[4:1],,,6h[4:1],,,5h[4:1],,,
{24}3h[8:3],,,,,,,,,7h[8:3],,,,,,,,,
{24}1h[4:5],,,,,,,,,,,,,,,,,,
{24}2,,3,,4,,5,,6,,7,,8,,1h[3:8],,2,,
{24}3,,4,,5,,6,,7,,8,,,,,,,,
{1},,,
{48},,,,,,,,2b/7b,,,,
{48},,,,,,,,4b/6b,,,,
{48},,,,,,,,,,,,
{48}6,,,5,,,6,,,5,,,
{48}6,,,5,,,6,,,5,,,
{48}6,,,5,,,6,,,5,,,
{16}6,,,5/6,,,6/7,,,7/8,,,
{16}1/8,,,1/2,,,2/3,,,3/4,,,
{16}4>4[8:9],,4,,,,,,4p4[2:1],,4,,
{16},,,,,,,,,,,,
{12},,,3/5,2,1,8,7,6,
{12}1/5,4/8,3/7,2/6,1/5,4/8,3/7,,,
{12},,,8-3[8:1]/4-7[8:1],,,4/8,,,
{12},,,4/8,,,3/7,,,
{24}2/6,,,,,,5,,,5h[4:1],,,,,,8h[8:15],,,
{24},,,,,,,,,,,,,,,,,,
{24},,,,,,,,,,,,7,,6,,5,,
{24}4,,3,,2,,1,,8,,7,,2h[4:5]/6,,5,,4,,
{24}3h[1:1],,,,,,,,,,,,,,,,,,
{24},,,,,,,,,,,,,,,,,,
{8}8h[4:7]/1p2[4:5],,,,,,
{8},,,,,,
{8},,,,1-3[8:1],8,
{8}1v6[8:1],,1-4[8:1],,1q3[2:3],,
{8}8h[1:2],,,,,,
{8},,,,,,
{8},,,,,,
{24},,,,,,3,,,6,,,4,,,7q8[2:3],,,
{24}5h[4:7],,,,,,,,,,,,,,,,,,
{24},,,,,,,,,,,,,,,,,,
{24},,,,,,,,,,,,8-6[8:1],,,1,,,
{24}8v3[8:1],,,,,,8p4[8:1],,,,,,
{24}8-2[8:1],,,,,,8q4[8:1],,,,,,
{24}8q3[2:3],,,,,,1h[4:7],,,,,,
{24},,,,,,,,,,,,
{24},,,,,,,,,,,,
{24},,,,,,,,,,,,
{24},,,,,,,,,,,,
{24},,,,,,
{8}5<7[8:1],,1>3[8:1],,6<8[8:1],,
{8}2>4[8:1],,7<5[8:1],7,,,,,
{8}3,5,4,5,4,5,
{8}3,6,4,5,4,5,
{8}3,5,4,6,4,5,
{8}2,5,4,7,4,5,
{8}1,5,3,8,4,6,
{8}2,7,1,8,
{8}1b>4[8:1],,,8b<5[8:1],,,
{8}1b-4[8:1],,,8b-5[8:1],,,
{8}1bq5[8:1],,,8bp4[8:1],,,
{8}1bp5[8:1],,,8bq4[8:1],,,
{8}1bv6[8:1],,,8bv3[8:1],,,
{8}1b-6[8:1],,,8b-3[8:1],,,
{12}1bw5[4:1],,,,,,,,,
{12},,,,,,,,,
{12}2,,,2-5[8:1],,1,2,,,
{12}7,,,7-4[8:1],,8,7,,,
{12}2,,,2-5[8:1],,1,2,,,
{12}1h[4:1],,,8h[4:1],,,7h[4:1],,,
{12}2,,,2-5[8:1],,8,2,,,
{12}7,,,7-4[8:1],,1,7,,,
{12}2,,,2-5[8:1],,8,2,,,
{12}8h[4:1],,,7h[4:1],,,6h[4:1],,,
{12}2,,,2-5[8:1],,7,2,,,
{12}7,,,7-4[8:1],,2,7,,,
{12}2,,,2-5[8:1],,7,2,,,
{12}7h[4:1],,,6h[4:1],,,5h[4:1],,,
{12}3h[4:1],,,2h[4:1],,,1h[4:1],,,
{12}6h[4:1],,,7h[4:1],,,8w4[8:1],,,
{12}8b,,,,,,,,,
